[bittorrent] Spikedrivers Casa Nueva Athens, Ohio 8/20/2009

Automated Mailer noreply-bt.e at etree.org
Fri Aug 21 13:36:47 MDT 2009


Band:           Other
Torrent Name:   Spikedrivers Casa Nueva Athens, Ohio 8/20/2009
Uploaded by:    zmanatl
DB Link:        
Details:        http://bt.etree.org/details.php?id=527665

Contact the seeder at http://db.etree.org/zmanatl

If the link to this show does not work, it was probably removed for
being non-trade-friendly.

Description / text file:
-------------------------
Spikedrivers 
Casa Nueva
Athens, Ohio
8/20/2009

Source: Schoeps CCM4V'S(din)>Lunatec V2>Benchmark AD2K>
Sound Devices 722 (24/48) 
Location: TOB/FOB/DFC/KFC/ZFC/AARP 15' From Stage, 8 1/2' High
DSP: Sound Devices 722>Sound Forge 9.0>CD Wave>flac(16)
Recorded By: Z-Man
Seeded By: Z-Man
  
Disc I 1st Set

01 If The Sea Was Whiskey
02 Lay Me Down 
03 Walked Off The Auction Block
04 America Hit Below The Bible Belt
05 The Long Embrace
06 House On Fire 
07 Ain't That Bad
08 West Virginia
09 Hard Travelin' 
10 Built Fot Comfort
Soundcheck:
11 *

Disc II 2nd Set

01 Like Water
02 My Babe 
03 Good Lovin' 
04 Victoria
05 Honky Tonkin' > 
06 Texio Heartthrob
07 St. James Infirmary
08 ?
09 Gather Round
10 ?
11 Pickin' Up The Pieces Of Last Night
12 Battle Of John Dillinger 
13 Band Introductions
Encore:
14 Banter - Thanks
15 Mountain Dew

* Jesse Solo 

Flac Fingerprint 

spikedrivers2009-08-20d01t01.flac:1d153bf2266d60935104130892d8fbc2
spikedrivers2009-08-20d01t02.flac:d89fdc27d8f07a66c1393f698b3a7ddd
spikedrivers2009-08-20d01t03.flac:16314c4eeaaddc89102ad470a72e2982
spikedrivers2009-08-20d01t04.flac:38b1424854470c23935a851f5d1b59d4
spikedrivers2009-08-20d01t05.flac:2d12e3e1fcd2826e2274575401c70dac
spikedrivers2009-08-20d01t06.flac:6e5f67b8365e18e9e671d89d5b5b52cd
spikedrivers2009-08-20d01t07.flac:f1910a982a35162137d98e91a508719d
spikedrivers2009-08-20d01t08.flac:08bc5b6344e719b37ac70af7d10d5d83
spikedrivers2009-08-20d01t09.flac:215af6f6a1684c5281e106795ca5b758
spikedrivers2009-08-20d01t10.flac:ef1b2aa3859e43ac88a81235ef6bcbee
spikedrivers2009-08-20d01t11.flac:2f7721d923355efa1e87cbeafb57bb7d
spikedrivers2009-08-20d02t01.flac:ba4091fdd98337bb1df3d57253d8905c
spikedrivers2009-08-20d02t02.flac:6f27b6422c6c8e9d0c7e0ac3fff38d57
spikedrivers2009-08-20d02t03.flac:57d79dabfc8bcddddb3e62d25b660670
spikedrivers2009-08-20d02t04.flac:53f4ee88e745c2b0190f498b3327f0ad
spikedrivers2009-08-20d02t05.flac:6c6c7f2bddac7aa2999d655dd913d823
spikedrivers2009-08-20d02t06.flac:0f9e898047acbfded4151865a32aa7e0
spikedrivers2009-08-20d02t07.flac:d7d123dfb3722edb4edc26ab82f27d0a
spikedrivers2009-08-20d02t08.flac:321029d05dfc2befd4cc18865683a03b
spikedrivers2009-08-20d02t09.flac:44cda1a9f5236bc4fe5e3b64d172d7f7
spikedrivers2009-08-20d02t10.flac:336e801a3177ddbf45a08d1adb7087fe
spikedrivers2009-08-20d02t11.flac:9ed460230f63898191402c2ff298bf3a
spikedrivers2009-08-20d02t12.flac:c2de2fb4fd58c35933abe911f06e02ac
spikedrivers2009-08-20d02t13.flac:bd1aa889bde9978e2e7f25a4b7109a13
spikedrivers2009-08-20d02t14.flac:9b18877fed1518257a390b7d5ebe74e5
spikedrivers2009-08-20d02t15.flac:3d1bc4c2f0d96b32d58690431ecd9e33

shntool 

    length     expanded size    cdr  WAVE problems  fmt   ratio  filename
     6:13.42       65896028 B   ---   --   ---xx   flac  0.4928  spikedrivers2009-08-20d01t01.flac
     4:14.62       44951468 B   ---   --   ---xx   flac  0.5710  spikedrivers2009-08-20d01t02.flac
     7:13.42       76480028 B   ---   --   ---xx   flac  0.5185  spikedrivers2009-08-20d01t03.flac
     5:14.72       55558988 B   ---   --   ---xx   flac  0.5282  spikedrivers2009-08-20d01t04.flac
     5:19.65       56424524 B   ---   --   ---xx   flac  0.4402  spikedrivers2009-08-20d01t05.flac
     3:45.11       39715916 B   ---   --   ---xx   flac  0.6179  spikedrivers2009-08-20d01t06.flac
     7:08.64       75649772 B   ---   --   ---xx   flac  0.5743  spikedrivers2009-08-20d01t07.flac
     6:59.72       74080988 B   ---   --   ---xx   flac  0.4306  spikedrivers2009-08-20d01t08.flac
     4:38.59       49178012 B   ---   --   ---xx   flac  0.5184  spikedrivers2009-08-20d01t09.flac
    11:29.37      121626668 B   ---   --   ---xx   flac  0.5534  spikedrivers2009-08-20d01t10.flac
     4:35.03       48517100 B   ---   --   ---xx   flac  0.5048  spikedrivers2009-08-20d01t11.flac
     4:54.39       51953372 B   ---   --   ---xx   flac  0.5079  spikedrivers2009-08-20d02t01.flac
     7:00.74       74262092 B   ---   --   ---xx   flac  0.5681  spikedrivers2009-08-20d02t02.flac
     4:17.54       45461852 B   ---   --   ---xx   flac  0.4592  spikedrivers2009-08-20d02t03.flac
     4:24.65       46722524 B   ---   --   ---xx   flac  0.6238  spikedrivers2009-08-20d02t04.flac
     3:27.63       36663020 B   ---   --   ---xx   flac  0.5309  spikedrivers2009-08-20d02t05.flac
     4:01.28       42578300 B   ---   --   ---xx   flac  0.5946  spikedrivers2009-08-20d02t06.flac
     7:08.13       75529820 B   ---   --   ---xx   flac  0.4084  spikedrivers2009-08-20d02t07.flac
     6:32.02       69153548 B   ---   --   ---xx   flac  0.6300  spikedrivers2009-08-20d02t08.flac
     4:47.54       50753852 B   ---   --   ---xx   flac  0.4821  spikedrivers2009-08-20d02t09.flac
     3:44.07       39530108 B   ---   --   ---xx   flac  0.5480  spikedrivers2009-08-20d02t10.flac
     4:48.58       50939660 B   ---   --   ---xx   flac  0.5142  spikedrivers2009-08-20d02t11.flac
     9:12.19       97417532 B   ---   --   ---xx   flac  0.5339  spikedrivers2009-08-20d02t12.flac
     0:59.19       10452332 B   ---   --   ---xx   flac  0.4531  spikedrivers2009-08-20d02t13.flac
     0:58.46       10339436 B   ---   --   ---xx   flac  0.3839  spikedrivers2009-08-20d02t14.flac
     4:58.67       52724828 B   ---   --   ---xx   flac  0.5295  spikedrivers2009-08-20d02t15.flac
   138:11.12     1462561768 B                            0.5250  (26 files)









More information about the bittorrent mailing list