[bittorrent] gd91-04-28.sbd.miller.92278.sbeok.flac16 - By Request

Automated Mailer noreply-bt.e at etree.org
Fri Aug 21 11:05:52 MDT 2009


Band:           Grateful Dead
Torrent Name:   gd91-04-28.sbd.miller.92278.sbeok.flac16 - By Request
Uploaded by:    WHARFRAT73
DB Link:        http://db.etree.org/shn/92278
Details:        http://bt.etree.org/details.php?id=527662

Contact the seeder at http://db.etree.org/WHARFRAT73

If the link to this show does not work, it was probably removed for
being non-trade-friendly.

Description / text file:
-------------------------
Grateful Dead - April 28, 1991
Sam Boyd Silver Bowl - Las Vegas, NV

Recording Info:
Set 1: SBD -> Dat -> Cassette Master -> Dat -> CD
Set 2: SBD -> Dat (44.1k)

Transfer Info:
Set 1: CD -> Samplitude Professional v10.02 -> FLAC
Set 2: Dat -> Sound Devices 744T -> Samplitude Professional v10.02 -> FLAC
(3 Discs Audio / 2 Discs FLAC)

All Transfers and Mastering By Charlie Miller
charliemiller87 at earthlink.net
June 13, 2008

Notes:
-- Set 2 is seamless
-- Set 1 is a straight SBD feed and Set 2 is from the UltraMatrix mix
-- This source does not have the flaws that other sources have
-- Carlos Santana plays on Bird Song

Set 1:
d1t01 - Tuning
d1t02 - Jack Straw
d1t03 - Candyman
d1t04 - Wang Dang Doodle
d1t05 - Althea
d1t06 - Me And My Uncle ->
d1t07 - Big River
d1t08 - Bird Song

Set 2:
d2t01 - Foolish Heart ->
d2t02 - Saint Of Circumstance ->
d2t03 - Crazy Fingers ->
d2t04 - Truckin' ->
d2t05 - Deal ->
d2t06 - Drums ->
d3t01 - Space ->
d3t02 - The Other One ->
d3t03 - Wharf Rat ->
d3t04 - Around And Around ->
d3t05 - Sunshine Daydream

Encore:
d3t06 - Box Of Rain


SHNTOOL OUTPUT:
    length     expanded size   cdr  WAVE problems filename
     2:46.06       29296556    ---   --   -----   gd91-04-28d1t01.wav
     8:13.14       86998172    ---   --   -----   gd91-04-28d1t02.wav
     7:17.20       77133884    ---   --   -----   gd91-04-28d1t03.wav
     7:41.73       81492140    ---   --   -----   gd91-04-28d1t04.wav
     9:33.12      101105468    ---   --   -----   gd91-04-28d1t05.wav
     3:06.37       32897468    ---   --   -----   gd91-04-28d1t06.wav
     6:40.17       70600028    ---   --   -----   gd91-04-28d1t07.wav
    18:58.01      200745596    ---   --   -----   gd91-04-28d1t08.wav
     8:20.15       88235324    ---   --   -----   gd91-04-28d2t01.wav
     7:19.02       77444348    ---   --   -----   gd91-04-28d2t02.wav
     9:08.73       96838940    ---   --   -----   gd91-04-28d2t03.wav
     8:03.64       85351772    ---   --   -----   gd91-04-28d2t04.wav
     9:49.49      104014892    ---   --   -----   gd91-04-28d2t05.wav
     6:58.18       73777580    ---   --   -----   gd91-04-28d2t06.wav
    12:20.74      130710092    ---   --   -----   gd91-04-28d3t01.wav
     9:14.02       97730348    ---   --   -----   gd91-04-28d3t02.wav
    10:37.53      112491500    ---   --   -----   gd91-04-28d3t03.wav
     4:36.12       48714668    ---   --   -----   gd91-04-28d3t04.wav
     8:45.63       92758220    ---   --   -----   gd91-04-28d3t05.wav
     4:55.05       52049804    ---   --   -----   gd91-04-28d3t06.wav
   164:26.10     1740386800 B                     (totals for 20 files)




More information about the bittorrent mailing list