[bittorrent] Robert Francis Band The Ark Ann Arbor, Michigan 8/18/2009

Automated Mailer noreply-bt.e at etree.org
Wed Aug 19 09:47:58 MDT 2009


Band:           Other
Torrent Name:   Robert Francis Band The Ark Ann Arbor, Michigan 8/18/2009
Uploaded by:    zmanatl
DB Link:        
Details:        http://bt.etree.org/details.php?id=527616

Contact the seeder at http://db.etree.org/zmanatl

If the link to this show does not work, it was probably removed for
being non-trade-friendly.

Description / text file:
-------------------------
Robert Francis Band
The Ark
Ann Arbor, Michigan
8/18/2009

Source: Schoeps CCM4V'S(din)>Lunatec V2>Benchmark AD2K>
Sound Devices 722 (24/48) 
Location: BOB/DFC/KFC/ZFC/AARP Row E, Seat 3, 5' High
DSP: Sound Devices 722>Sound Forge 9.0>CD Wave>flac(16)
Recorded By: Z-Man
Seeded By: Z-Man
  
Disc I 

01 Announcements and Introduction By John Bomerito
02 All Of My Trains
03 Climb A Mountain
04 Alice
05 Nightfall
06 Mascaline
07 *Little Girl

* Robert Francis Solo

Flac Fingerprint

robertfrancis2009-08-18d01t01.flac:64f19b540a4f5a3af317a98c0f6fdf21
robertfrancis2009-08-18d01t02.flac:152f0b1eba2b7563554971b7a1f6378a
robertfrancis2009-08-18d01t03.flac:9d432997b76bdf5f41b7fe638e992978
robertfrancis2009-08-18d01t04.flac:c0ea570fdc196065f92e8af68d1cbc77
robertfrancis2009-08-18d01t05.flac:0e803a21826163f906aeb9c6ae528716
robertfrancis2009-08-18d01t06.flac:4b5ccca8f0a987f8d422b36e43fae45b
robertfrancis2009-08-18d01t07.flac:135110cc1f2ead5833d028a60e86db07

shntool 

    length     expanded size    cdr  WAVE problems  fmt   ratio  filename
     1:47.60       19015964 B   ---   --   ---xx   flac  0.3684  robertfrancis2009-08-18d01t01.flac
     6:45.32       71517308 B   ---   --   ---xx   flac  0.4221  robertfrancis2009-08-18d01t02.flac
     3:59.31       42232556 B   ---   --   ---xx   flac  0.5165  robertfrancis2009-08-18d01t03.flac
     3:55.74       41628092 B   ---   --   ---xx   flac  0.4009  robertfrancis2009-08-18d01t04.flac
     4:59.55       52873004 B   ---   --   ---xx   flac  0.4936  robertfrancis2009-08-18d01t05.flac
     4:59.47       52854188 B   ---   --   ---xx   flac  0.4490  robertfrancis2009-08-18d01t06.flac
     5:40.33       60053660 B   ---   --   ---xx   flac  0.3076  robertfrancis2009-08-18d01t07.flac
    32:08.32      340174772 B                            0.4233  (7 files)






More information about the bittorrent mailing list