[bittorrent] Lee Boys Nelson Ledges Quarry Park Garretsville, Ohio 8/1/2009

Automated Mailer noreply-bt.e at etree.org
Tue Aug 18 11:13:56 MDT 2009


Band:           Other
Torrent Name:   Lee Boys Nelson Ledges Quarry Park Garretsville, Ohio 8/1/2009
Uploaded by:    zmanatl
DB Link:        
Details:        http://bt.etree.org/details.php?id=527601

Contact the seeder at http://db.etree.org/zmanatl

If the link to this show does not work, it was probably removed for
being non-trade-friendly.

Description / text file:
-------------------------
Lee Boys
Jerry Garcia's Birthday Bash
Nelson Ledges Quarry Park
Garretsville, Ohio
8/1/2009

Source: Schoeps CCM4V'S(din)>Lunatec V2>Benchmark AD2K>
Sound Devices 722 (24/48) 
Location: FOB/DFC/KFC/ZFC/AARP 36' From Stage, 6' High
DSP: Sound Devices 722>Sound Forge 9.0>CD Wave>flac(16)
Recorded By: Z-Man
Seeded By: Z-Man
  
Disc I 

01 ? >
02 ? >
03 ? >
04 *
05 ? >
06 ? >
07 ? >
08 

Disc II 

01 #Testify
02 Banter/Tuning
03 *#@? >
04 *#@Celebrate >
05 *#Take You To Church
Encore:
06 Voodoo Chile

* With Bobby Lee Rogers On Guitar
# With Chris Nowak and Allie Krall of Cornmeal on Guitar and Fiddle
@ With Tim and Bass Player From Shak Nasti

Flac Fingerprint 

leeboys2009-08-01d01t01.flac:bf60d4ed020163c3526b17ff4c621afa
leeboys2009-08-01d01t02.flac:d0fb7014a33a70b70c30bb9e9fdb10a6
leeboys2009-08-01d01t03.flac:c66dceaa5ca9ba834d004c6f2139e981
leeboys2009-08-01d01t04.flac:f5694e7b12380f2401f87fe5168d855b
leeboys2009-08-01d01t05.flac:aec4d95639585c1f9fe69dc8f1bb3aaf
leeboys2009-08-01d01t06.flac:c75e4d0257320f8a897ecc0550e4cd28
leeboys2009-08-01d01t07.flac:d97b85c0c2784b0a498e7450023fb838
leeboys2009-08-01d01t08.flac:c3dd862376c3f1cea7dd86e9e86df99d
leeboys2009-08-01d02t01.flac:566711838ed9610a57585b76fc813f32
leeboys2009-08-01d02t02.flac:4836e7ce001ad112fe40a77ea5633367
leeboys2009-08-01d02t03.flac:8f29ae37765b2706ed72ed14da7b79be
leeboys2009-08-01d02t04.flac:5ae7c9ddc4653a8a158a4b075e2976de
leeboys2009-08-01d02t05.flac:15e3bac058073f49e3119749b64dcbdf
leeboys2009-08-01d02t06.flac:a28918cbadbb94ccdf01e528dc209c2b

shntool 

    length     expanded size    cdr  WAVE problems  fmt   ratio  filename
     4:09.61       44067116 B   ---   --   ---xx   flac  0.5994  leeboys2009-08-01d01t01.flac
     9:48.52      103845548 B   ---   --   ---xx   flac  0.5721  leeboys2009-08-01d01t02.flac
     9:27.57      100152908 B   ---   --   ---xx   flac  0.5695  leeboys2009-08-01d01t03.flac
    16:05.41      170322476 B   ---   --   ---xx   flac  0.5578  leeboys2009-08-01d01t04.flac
    13:26.53      142303100 B   ---   --   ---xx   flac  0.5769  leeboys2009-08-01d01t05.flac
     6:58.22       73786988 B   ---   --   ---xx   flac  0.5256  leeboys2009-08-01d01t06.flac
     6:22.20       67431884 B   ---   --   ---xx   flac  0.5918  leeboys2009-08-01d01t07.flac
     5:45.09       60879212 B   ---   --   ---xx   flac  0.5324  leeboys2009-08-01d01t08.flac
    15:00.07      158776508 B   ---   --   ---xx   flac  0.5314  leeboys2009-08-01d02t01.flac
     3:29.59       37006412 B   ---   --   ---xx   flac  0.3377  leeboys2009-08-01d02t02.flac
     7:11.66       76183676 B   ---   --   ---xx   flac  0.5554  leeboys2009-08-01d02t03.flac
    10:46.42      114053228 B   ---   --   ---xx   flac  0.5189  leeboys2009-08-01d02t04.flac
     5:26.18       57548780 B   ---   --   ---xx   flac  0.5206  leeboys2009-08-01d02t05.flac
     5:36.41       59366876 B   ---   --   ---xx   flac  0.5136  leeboys2009-08-01d02t06.flac
   119:35.23     1265724712 B                            0.5450  (14 files)





More information about the bittorrent mailing list