[bittorrent] Davisson Brothers Nelson Ledges Quarry Park Garretsville, Ohio 7/31/2009

Automated Mailer noreply-bt.e at etree.org
Mon Aug 17 20:23:15 MDT 2009


Band:           Other
Torrent Name:   Davisson Brothers Nelson Ledges Quarry Park Garretsville, Ohio 7/31/2009
Uploaded by:    zmanatl
DB Link:        
Details:        http://bt.etree.org/details.php?id=527592

Contact the seeder at http://db.etree.org/zmanatl

If the link to this show does not work, it was probably removed for
being non-trade-friendly.

Description / text file:
-------------------------
Davisson Brothers
Jerry Garcia's Birthday Bash
Nelson Ledges Quarry Park
Garretsville, Ohio
7/31/2009

Source: Schoeps CCM4V'S(din)>Lunatec V2>Benchmark AD2K>
Sound Devices 722 (24/48) 
Location: FOB/DFC/KFC/ZFC/AARP 36' From Stage, 6' High
DSP: Sound Devices 722>Sound Forge 9.0>CD Wave>flac(16)
Recorded By: Z-Man
Seeded By: Z-Man
  
Disc I 

01 Tuning/Banter >
02 Leftover Biscuits
03 Tomcat Songs
04 Jam >
05 Friend Of The Devil
06 Horses
07 *Goin' Down The Road Feelin' Bad 
08 *Take A Whiff On Me
09 *Gone
10 *Piss Poor Proud

Disc II

01 *Jam >
02 *Franklin's Tower (With Blue Sky Tease)
03 Jesse James
04 Rollin' In My Sweet Baby's Arms
05 Found Dead On A Fence Line
06 Jump On It >
07 Foot Stompin'
08 Big City Hillbilly
09 Chicken Train >
10 Drum Solo >
11 Chicken Train

* With Bobby Lee Rogers on Guitar

Flac Fingerprint 

davissonbrothers2009-07-31d01t01.flac:8adce1e8299e5c62283173b9ccaec450
davissonbrothers2009-07-31d01t02.flac:ec12ad33aae4d583cbf7a0988c08ad24
davissonbrothers2009-07-31d01t03.flac:ee69c43518978bf3e883d7fa069c15e6
davissonbrothers2009-07-31d01t04.flac:cc49075bfc49a35362d3038789869849
davissonbrothers2009-07-31d01t05.flac:9bcb7bfdeb78a49a2a73a90bb74df1d4
davissonbrothers2009-07-31d01t06.flac:b33edbcb8d089831bb6b90fc90d922dc
davissonbrothers2009-07-31d01t07.flac:d9b0c698a77af743b2b5d16f8e554b3f
davissonbrothers2009-07-31d01t08.flac:941be512446807ce3e2ccb6ba419b87b
davissonbrothers2009-07-31d01t09.flac:9042a1d538d8c3fe42b123829bc4b5e8
davissonbrothers2009-07-31d01t10.flac:fa2e3b968e38e19cf54a42ebe28a139b
davissonbrothers2009-07-31d02t01.flac:f645de60ab52b026afcfc73066f254df
davissonbrothers2009-07-31d02t02.flac:d189a4a7a144f93a8f5b40e715c6b9bb
davissonbrothers2009-07-31d02t03.flac:8c3a4527d9d447acdd871a664643b3e8
davissonbrothers2009-07-31d02t04.flac:f44ea98ef198335d64c0b93d4d5a05ef
davissonbrothers2009-07-31d02t05.flac:2224763a4eefd207b69532ae1de6a4cc
davissonbrothers2009-07-31d02t06.flac:7949fe3ca1b1345c48601bb605678a74
davissonbrothers2009-07-31d02t07.flac:5c4eafdf5e68b37386806ac37b2f9e4b
davissonbrothers2009-07-31d02t08.flac:612cf4febb531d7e3356eac410e27c64
davissonbrothers2009-07-31d02t09.flac:5f2eca5d5ec9aa9f50ac1b728e4e8946
davissonbrothers2009-07-31d02t10.flac:714d77cd6bdf87378d1c46b323f68126
davissonbrothers2009-07-31d02t11.flac:1d5a209b1a7f4b0d52cd7fa52efa2496

shntool 

    length     expanded size    cdr  WAVE problems  fmt   ratio  filename
     0:48.22        8518988 B   ---   --   ---xx   flac  0.4679  davissonbrothers2009-07-31d01t01.flac
     3:24.06       35999756 B   ---   --   ---xx   flac  0.4723  davissonbrothers2009-07-31d01t02.flac
     4:29.53       47576300 B   ---   --   ---xx   flac  0.4407  davissonbrothers2009-07-31d01t03.flac
     1:18.64       13909772 B   ---   --   ---xx   flac  0.4368  davissonbrothers2009-07-31d01t04.flac
     6:37.67       70188428 B   ---   --   ---xx   flac  0.4370  davissonbrothers2009-07-31d01t05.flac
     5:42.42       60427628 B   ---   --   ---xx   flac  0.4388  davissonbrothers2009-07-31d01t06.flac
     4:39.13       49246220 B   ---   --   ---xx   flac  0.4875  davissonbrothers2009-07-31d01t07.flac
     5:12.26       55097996 B   ---   --   ---xx   flac  0.5349  davissonbrothers2009-07-31d01t08.flac
     6:56.51       73502396 B   ---   --   ---xx   flac  0.5324  davissonbrothers2009-07-31d01t09.flac
     5:28.26       57920396 B   ---   --   ---xx   flac  0.5286  davissonbrothers2009-07-31d01t10.flac
     1:19.26       13996796 B   ---   --   ---xx   flac  0.4418  davissonbrothers2009-07-31d02t01.flac
    11:28.69      121525532 B   ---   --   ---xx   flac  0.5448  davissonbrothers2009-07-31d02t02.flac
     4:24.62       46715468 B   ---   --   ---xx   flac  0.5067  davissonbrothers2009-07-31d02t03.flac
     2:50.04       29997452 B   ---   --   ---xx   flac  0.4916  davissonbrothers2009-07-31d02t04.flac
     5:46.32       61109708 B   ---   --   ---xx   flac  0.4920  davissonbrothers2009-07-31d02t05.flac
     3:40.57       38942108 B   ---   --   ---xx   flac  0.5338  davissonbrothers2009-07-31d02t06.flac
     4:41.72       49737788 B   ---   --   ---xx   flac  0.5183  davissonbrothers2009-07-31d02t07.flac
     4:25.47       46856588 B   ---   --   ---xx   flac  0.5126  davissonbrothers2009-07-31d02t08.flac
     6:36.17       69894428 B   ---   --   ---xx   flac  0.5024  davissonbrothers2009-07-31d02t09.flac
     1:04.18       11331980 B   ---   --   ---xx   flac  0.5851  davissonbrothers2009-07-31d02t10.flac
     6:07.36       64823516 B   ---   --   ---xx   flac  0.5189  davissonbrothers2009-07-31d02t11.flac
    97:03.60     1027319244 B                            0.5016  (21 files)


 



More information about the bittorrent mailing list