[bittorrent] jg80-02-16.jgb.aud.cbass.21477.shnf [PREFERRED]

Automated Mailer noreply-bt.e at etree.org
Fri Aug 14 13:46:02 MDT 2009


Band:           Garcia
Torrent Name:   jg80-02-16.jgb.aud.cbass.21477.shnf [PREFERRED]
Uploaded by:    SteveSw
DB Link:        http://db.etree.org/shn/21477
Details:        http://bt.etree.org/details.php?id=527495

Contact the seeder at http://db.etree.org/SteveSw

If the link to this show does not work, it was probably removed for
being non-trade-friendly.

Description / text file:
-------------------------
Jerry Garcia Band
Gymnasium (University of New Haven), West Haven, CT
2-16-1980

AUDMC > ? > DAT > CD > SHN (seeking enabled)

Disc 1 - Set 1 [50:17]
1. Crowd/Tuning [0:21]
2. How Sweet It Is (To Be Loved By You) [7:19] [1:01]
3. They Love Each Other [6:46] [1:33]
4. Let It Rock [9:06] [0:31]
5. Simple Twist Of Fate [15:55]
6. //That's All Right, Mama [7:28] [0:15]

Disc 2 - Set 2 [32:44]
1. //It Takes A Lot To Laugh, It Takes A Train To Cry [10:54] [0:35]
2. Tore Up Over You [8:18] [0:23]
3. Russian Lullaby [12:30] [0:04]
   [MISSING] When I Paint My Masterpiece

Notes:
d2t01 It sounds like only the first few beginning notes are missing.
d2t02 Only the first note or two is missing.

Taper and taping equipment unknown.
DAE > CDWav > shntools > SHN via cbass.


    length     expanded size    cdr  WAVE problems  fmt   ratio  filename
     0:21.65        3857324 B   ---   --   ---xx    shn  0.6030  jgb80-02-16d1t01.shn
     8:20.71       88367036 B   ---   --   ---xx    shn  0.6710  jgb80-02-16d1t02.shn
     8:19.34       88103612 B   ---   --   ---xx    shn  0.6516  jgb80-02-16d1t03.shn
     9:37.12      101811068 B   ---   --   ---xx    shn  0.6873  jgb80-02-16d1t04.shn
    15:55.41      168558476 B   ---   --   ---xx    shn  0.6332  jgb80-02-16d1t05.shn
     7:43.24       81729692 B   ---   --   ---xx    shn  0.6815  jgb80-02-16d1t06.shn
    11:29.61      121683116 B   ---   --   ---xx    shn  0.6306  jgb80-02-16d2t01.shn
     8:41.10       91927964 B   ---   --   ---xx    shn  0.6634  jgb80-02-16d2t02.shn
    12:34.65      133158524 B   ---   --   ---xx    shn  0.6012  jgb80-02-16d2t03.shn
    83:04.08      879196812 B                            0.6474  (9 files)




More information about the bittorrent mailing list