[bittorrent] jg80-02-16.jgb.fob-akai.vid-hance.jupille.32346.flac16

Automated Mailer noreply-bt.e at etree.org
Fri Aug 14 13:44:33 MDT 2009


Band:           Garcia
Torrent Name:   jg80-02-16.jgb.fob-akai.vid-hance.jupille.32346.flac16
Uploaded by:    SteveSw
DB Link:        http://db.etree.org/shn/32346
Details:        http://bt.etree.org/details.php?id=527494

Contact the seeder at http://db.etree.org/SteveSw

If the link to this show does not work, it was probably removed for
being non-trade-friendly.

Description / text file:
-------------------------
Jerry Garcia Band
Gymnasium, University of New Haven
New Haven, CT
2/16/80

MAC (Taped by Scott Vid, FOB Akai mic > Superscope deck) > Tascam 122 mkII playback >
Lucid ADA 1000 A-D converter > Tascam DA30 mkII master DAT > Tascam 700 CD > Plexwriter
PX-W4824A extraction (EAC v0.9 beta 4) > tracking (CD Wave v1.6) > slight editing (Sound
Forge Audio Studio 7.0) > sector boundary verification (shntool v1.01) > level 8 FLAC
encoding (Flac Frontend v.1.7.1 etree edition).  Cassette transfer by John Hance, FLAC
encoding by jjoops.

Disc One (5 tracks, 48:48)
--Set I--
d1t01. How Sweet It Is [7:28] [0:12]
d1t02. They// Love Each Other [6:#53] [0:03]
d1t03. Let it Rock [9:19] [0:18]
d1t04. Simple Twist of Fate [16:09] [0:37]
d1t05. That's Alright Mama [7:37] [0:10]

Disc Two (6 tracks, 54:55)
--Set II--
d2t01. Crowd [0:05]
d2t02. It Takes a Lot to Laugh, It Takes a Train to Cry [11:03] [0:14]
d2t03. Tore Up Over You [8:26] [0:10]
d2t04. Russian Lullaby [12:41] [0:20]
d2t05. Harder They Come [11:59] [0:04]
--Encore--
d2t06. When I Paint My Masterpiece [9:44] [0:08]

Notes:
- Really energetic show with strong versions of How Sweet It Is, Let it Rock and Harder
They Come. The recording is not as good as the circulating MAC > C copy (shnid 21477),
but it is complete and lineaged.
- d1t01 HTC volume out @ 1:09-1:11, potential fixes worse than the problem.
- d1t01 HTC attenuated volume by -6db from 3:09-3:11 to save your speakers.
- d1t02 TLEO brief splice @ 0:06.  Could be patched from shnid 21477.
- d2t03 LIR digi-scratch @ 4:39.

Thanks to John Jay Hance for the source CDs!


    length     expanded size    cdr  WAVE problems  fmt   ratio  filename
     7:40.06       81158156 B   ---   --   ---xx   flac  0.5767  jgb1980-02-16-vid-d1t01.flac
     6:56.50       73500044 B   ---   --   ---xx   flac  0.5381  jgb1980-02-16-vid-d1t02.flac
     9:37.61      101926316 B   ---   --   ---xx   flac  0.5724  jgb1980-02-16-vid-d1t03.flac
    16:46.52      177580748 B   ---   --   ---xx   flac  0.5123  jgb1980-02-16-vid-d1t04.flac
     7:47.02       82383548 B   ---   --   ---xx   flac  0.5986  jgb1980-02-16-vid-d1t05.flac
     0:05.03         889100 B   ---   --   ---xx   flac  0.4222  jgb1980-02-16-vid-d2t01.flac
    11:17.31      119495756 B   ---   --   ---xx   flac  0.5414  jgb1980-02-16-vid-d2t02.flac
     8:36.35       91104764 B   ---   --   ---xx   flac  0.5908  jgb1980-02-16-vid-d2t03.flac
    13:01.16      137806076 B   ---   --   ---xx   flac  0.5095  jgb1980-02-16-vid-d2t04.flac
    12:03.37      127624268 B   ---   --   ---xx   flac  0.5626  jgb1980-02-16-vid-d2t05.flac
     9:52.22      104480588 B   ---   --   ---xx   flac  0.5843  jgb1980-02-16-vid-d2t06.flac
   103:44.15     1097949364 B                            0.5528  (11 files)




More information about the bittorrent mailing list