[bittorrent] Ginn Sisters The Ark Ann Arbor, Michigan 8/12/2009

Automated Mailer noreply-bt.e at etree.org
Fri Aug 14 12:08:33 MDT 2009


Band:           Other
Torrent Name:   Ginn Sisters The Ark Ann Arbor, Michigan 8/12/2009 
Uploaded by:    zmanatl
DB Link:        
Details:        http://bt.etree.org/details.php?id=527493

Contact the seeder at http://db.etree.org/zmanatl

If the link to this show does not work, it was probably removed for
being non-trade-friendly.

Description / text file:
-------------------------
Ginn Sisters
The Ark 
Ann Arbor, Michigan
8/12/2009

Source: Schoeps CCM4V'S(din)>Lunatec V2>Benchmark AD2K>
Sound Devices 722 (24/48) 
Location: BOB/DFC/KFC/ZFC/AARP Row B, Seat 4, 6' High
DSP: Sound Devices 722>Sound Forge 9.0>CD Wave>flac(16)
Recorded By: Z-Man
Seeded By: Z-Man
  
Disc I 

01 Announcements And Introduction By Allison
02 Heart And Bones
03 
04 Rodeo Song
05 Redhead Rosie
06 
07 String 'Em Along
08 
09 Fireworks
10 Down The Drain

Disc II

01 2 Cool 2 Cry 
02 Just Dropped In
03 Blue Monday
04 Not My Friend
05 Let It Burn
06 Dreams
07 Get It And Go
08 Trouble
09 Ramblin' Ones  

Tiffani Ginn on Guitar And Vocals
Brit Ginn on Flute And Vocals

* Entire Show With Jeff on Guitar

Flac Fingerprint 

ginnsisters2009-08-12d01t01.flac:b61d644716e9e0c9e8233919d1636d16
ginnsisters2009-08-12d01t02.flac:029904a7ecca4444e92205867c3b6123
ginnsisters2009-08-12d01t03.flac:d8e1898e59030a58705b7cde12edbd1b
ginnsisters2009-08-12d01t04.flac:54b44d0b8d7bd889c4cf739829571ea1
ginnsisters2009-08-12d01t05.flac:23e882595985f6451981dcd4dc766a79
ginnsisters2009-08-12d01t06.flac:3693d084b6012f6971db2a5d8734c2fc
ginnsisters2009-08-12d01t07.flac:a0ee4c5af36480e881526e78156951c8
ginnsisters2009-08-12d01t08.flac:e7864e4bfd9b60c5ed32bb412b2c5fce
ginnsisters2009-08-12d01t09.flac:574d1be3f8a0418c7fba5954daebb061
ginnsisters2009-08-12d01t10.flac:984819787872e2e8106b1fd771e1d3c4
ginnsisters2009-08-12d02t01.flac:a81510fe835b3391e062b18ac074652c
ginnsisters2009-08-12d02t02.flac:5db2900ee2451b679e1ef3be7058933f
ginnsisters2009-08-12d02t03.flac:2bb552408e1f7bcede7e59363d50b2d8
ginnsisters2009-08-12d02t04.flac:ad28195c2c346d3e283a29feba156378
ginnsisters2009-08-12d02t05.flac:312c404f03f0ddc036218374cc79cbea
ginnsisters2009-08-12d02t06.flac:ecf9074d2b3085b2b7d4408420d1634e
ginnsisters2009-08-12d02t07.flac:6067f8069a5e894dde2b39d78e8d0dce
ginnsisters2009-08-12d02t08.flac:71ef8ec9a507d5a22937dd2ec994cffe
ginnsisters2009-08-12d02t09.flac:c03ffbc971fec4c3311f6000356b25dc

shntool

    length     expanded size    cdr  WAVE problems  fmt   ratio  filename
     1:39.09       17484812 B   ---   --   ---xx   flac  0.3775  ginnsisters2009-08-12d01t01.flac
     4:00.71       42503036 B   ---   --   ---xx   flac  0.4389  ginnsisters2009-08-12d01t02.flac
     5:14.31       55462556 B   ---   --   ---xx   flac  0.4277  ginnsisters2009-08-12d01t03.flac
     5:02.72       53442188 B   ---   --   ---xx   flac  0.4172  ginnsisters2009-08-12d01t04.flac
     4:54.31       51934556 B   ---   --   ---xx   flac  0.4257  ginnsisters2009-08-12d01t05.flac
     4:07.17       43610828 B   ---   --   ---xx   flac  0.3146  ginnsisters2009-08-12d01t06.flac
     4:19.27       45751148 B   ---   --   ---xx   flac  0.4442  ginnsisters2009-08-12d01t07.flac
     3:36.47       38212988 B   ---   --   ---xx   flac  0.4527  ginnsisters2009-08-12d01t08.flac
     5:43.50       60622844 B   ---   --   ---xx   flac  0.3564  ginnsisters2009-08-12d01t09.flac
     5:20.26       56509196 B   ---   --   ---xx   flac  0.4752  ginnsisters2009-08-12d01t10.flac
     4:17.31       45407756 B   ---   --   ---xx   flac  0.4032  ginnsisters2009-08-12d02t01.flac
     4:38.25       49098044 B   ---   --   ---xx   flac  0.4433  ginnsisters2009-08-12d02t02.flac
     8:18.63       87995420 B   ---   --   ---xx   flac  0.3854  ginnsisters2009-08-12d02t03.flac
     2:31.56       26768156 B   ---   --   ---xx   flac  0.4394  ginnsisters2009-08-12d02t04.flac
     3:41.08       39003260 B   ---   --   ---xx   flac  0.4458  ginnsisters2009-08-12d02t05.flac
     4:54.40       51955724 B   ---   --   ---xx   flac  0.3489  ginnsisters2009-08-12d02t06.flac
     5:10.37       54771068 B   ---   --   ---xx   flac  0.4679  ginnsisters2009-08-12d02t07.flac
     4:08.22       43798988 B   ---   --   ---xx   flac  0.4423  ginnsisters2009-08-12d02t08.flac
     5:08.14       54364172 B   ---   --   ---xx   flac  0.4966  ginnsisters2009-08-12d02t09.flac
    86:48.02      918696740 B                            0.4206  (19 files)








More information about the bittorrent mailing list