[bittorrent] Phish Toyota Park Bridgeview, Illinois 8/11/2009

Automated Mailer noreply-bt.e at etree.org
Wed Aug 12 01:58:34 MDT 2009


Band:           Phish
Torrent Name:   Phish Toyota Park Bridgeview, Illinois 8/11/2009
Uploaded by:    zmanatl
DB Link:        
Details:        http://bt.etree.org/details.php?id=527451

Contact the seeder at http://db.etree.org/zmanatl

If the link to this show does not work, it was probably removed for
being non-trade-friendly.

Description / text file:
-------------------------
Phish
Toyota Park
Bridgeview, Illinois
8/11/2009

Source: Schoeps CCM4V'S(din)>Lunatec V2>Benchmark AD2K>
Sound Devices 722 (24/48) 
Location: FOB/DFC/KFC/ZFC/AARP Approximately 50' From Stage, 6' High
DSP: Sound Devices 722>Sound Forge 9.0>CD Wave>flac(16)
Recorded By: Z-Man
Seeded By: Z-Man
  
Disc I 1st Set

01 Kill Devil Falls
02 Sample In A Jar
03 Ocelot
04 Paul And Silas
05 *Windy City
06 Curtain >
07 Rift Jam
08 Train Song
09 Gumbo
10 Heavy Things
11 Time Turns Elastic

Disc II 2nd Set

01 Backwards Down The Number Line >
02 Carini >
03 Gotta Jiboo
04 Theme From The Bottom

Disc III 2nd Set Con't

01 Wilson >
02 2001 >
03 Chalk Dust Torture
04 Harry Hood 
05 The Squirming Coil >
06 Page Piano Solo
Encore:
07 Crowd
08 Loving Cup

* First Time Played

Flac Fingerprint 

phish2009-08-11d01t01.flac:9a350bde8bbca5bd9974b44c05730bcb
phish2009-08-11d01t02.flac:a78ddd45b21c760e5637abeac1d52ef8
phish2009-08-11d01t03.flac:233f455cf219c7f83f2ee4b0aaa247b4
phish2009-08-11d01t04.flac:c5d5f5c0f8fc63dbd77cdfddf2dbdb5e
phish2009-08-11d01t05.flac:21ca7babb772bcf402a37a1495acd1c9
phish2009-08-11d01t06.flac:245d770cc49d69655eee341a325cf77c
phish2009-08-11d01t07.flac:c670b93ec16fa30d1b8bf0105f80acfb
phish2009-08-11d01t08.flac:29548a9ba99fec21faa01f6e7d551cfc
phish2009-08-11d01t09.flac:209611ec535455d3d4914f729d30c11b
phish2009-08-11d01t10.flac:15e08f7f75eaafc8fdb1a64581d01a5b
phish2009-08-11d01t11.flac:e2ed562062ec7f277afb59b8f0ed89cf
phish2009-08-11d02t01.flac:30ff582003892aeb87f8a5a840c33e0e
phish2009-08-11d02t02.flac:85a89a87592018b4aa23367c6dbb7a87
phish2009-08-11d02t03.flac:8effa0b996dfd12c614d2ce2fc27dbf4
phish2009-08-11d02t04.flac:c32eacf3e65cb5e20d17f032f0914958
phish2009-08-11d03t01.flac:8dfba9a0f2764e3d600b528cdf4d1f68
phish2009-08-11d03t02.flac:f85b93d329a000e3322e3b276bfc6410
phish2009-08-11d03t03.flac:406b49f496fa019947505eae9d827269
phish2009-08-11d03t04.flac:bc0c16472f3358b90fe47fe897c81376
phish2009-08-11d03t05.flac:a815cdf7bf2e37a6aa7ddd48ad740586
phish2009-08-11d03t06.flac:c87222daef4e97b5fe708d6a5ab9b502
phish2009-08-11d03t07.flac:fc573b291c39b21e303bb3fb160640ca
phish2009-08-11d03t08.flac:f166a1ea123a062b2023ec8b27ce15bd

shntool 

    length     expanded size    cdr  WAVE problems  fmt   ratio  filename
     7:48.32       82630508 B   ---   --   ---xx   flac  0.4562  phish2009-08-11d01t01.flac
     5:04.63       53773820 B   ---   --   ---xx   flac  0.4528  phish2009-08-11d01t02.flac
     9:40.35      102394364 B   ---   --   ---xx   flac  0.4236  phish2009-08-11d01t03.flac
     2:57.01       31225196 B   ---   --   ---xx   flac  0.4017  phish2009-08-11d01t04.flac
     6:10.19       65312732 B   ---   --   ---xx   flac  0.4117  phish2009-08-11d01t05.flac
     8:25.66       89237276 B   ---   --   ---xx   flac  0.4104  phish2009-08-11d01t06.flac
     5:31.14       58421372 B   ---   --   ---xx   flac  0.4139  phish2009-08-11d01t07.flac
     3:16.39       34666172 B   ---   --   ---xx   flac  0.3249  phish2009-08-11d01t08.flac
     5:51.06       61930556 B   ---   --   ---xx   flac  0.3899  phish2009-08-11d01t09.flac
     7:09.39       75767372 B   ---   --   ---xx   flac  0.3786  phish2009-08-11d01t10.flac
    17:56.08      189825260 B   ---   --   ---xx   flac  0.4140  phish2009-08-11d01t11.flac
    14:01.18      148394780 B   ---   --   ---xx   flac  0.4604  phish2009-08-11d02t01.flac
     7:19.23       77493740 B   ---   --   ---xx   flac  0.4739  phish2009-08-11d02t02.flac
     9:58.12      105515468 B   ---   --   ---xx   flac  0.4230  phish2009-08-11d02t03.flac
     8:30.47       90074588 B   ---   --   ---xx   flac  0.4415  phish2009-08-11d02t04.flac
     6:03.02       64037948 B   ---   --   ---xx   flac  0.4542  phish2009-08-11d03t01.flac
     8:40.33       91805660 B   ---   --   ---xx   flac  0.4442  phish2009-08-11d03t02.flac
     8:52.51       93964796 B   ---   --   ---xx   flac  0.4596  phish2009-08-11d03t03.flac
    13:25.73      142173740 B   ---   --   ---xx   flac  0.4121  phish2009-08-11d03t04.flac
     6:19.19       66900332 B   ---   --   ---xx   flac  0.4039  phish2009-08-11d03t05.flac
     2:59.12       31603868 B   ---   --   ---xx   flac  0.3082  phish2009-08-11d03t06.flac
     0:31.05        5480204 B   ---   --   ---xx   flac  0.3155  phish2009-08-11d03t07.flac
     8:04.66       85532876 B   ---   --   ---xx   flac  0.4422  phish2009-08-11d03t08.flac
   174:37.08     1848162628 B                            0.4251  (23 files)







More information about the bittorrent mailing list