[bittorrent] John Cowan Band The Ark Ann Arbor, Michigan 8/10/2009

Automated Mailer noreply-bt.e at etree.org
Tue Aug 11 08:25:27 MDT 2009


Band:           John Cowan Band
Torrent Name:   John Cowan Band The Ark Ann Arbor, Michigan 8/10/2009 
Uploaded by:    zmanatl
DB Link:        
Details:        http://bt.etree.org/details.php?id=527431

Contact the seeder at http://db.etree.org/zmanatl

If the link to this show does not work, it was probably removed for
being non-trade-friendly.

Description / text file:
-------------------------
John Cowan Band
The Ark 
Ann Arbor, Michigan
8/10/2009

Source: Schoeps CCM4V'S(din)>Lunatec V2>Benchmark AD2K>
Sound Devices 722 (24/48) 
Location: BOB/DFC/KFC/ZFC/AARP Row D, Seat 4, 6' High
DSP: Sound Devices 722>Sound Forge 9.0>CD Wave>flac(16)
Recorded By: Z-Man
Seeded By: Z-Man
  
Disc I 

01 Announcements And Introduction By Bill
02 My Time In The Desert >
03 Maggie Lytle
04 Tomorrow Morning
05 East Meets West
06 Got To Carry On
07 Band Introductions/Banter
08 King Of California >
09 Beyond These Walls
10 Four Days Of Rain >
11 I've Got Nothin' But The Blues
12 ?
13 Fiddler's Dream 

Disc II

01 Tuning/Banter
02 Hold To A Dream
03 Gasology >
04 Tuesday Afternoon >
05 Norwegian Wood Jam >
06 Goin' To California >
07 ?
08 Wee Small Hours
09 Carla's Got A Cool Tattoo
10 Head South
11 ?
12 Baton Rouge
Encore:
13 *Thanks/Tuning
14 * 
15 Love's In Need Of Love
16 Sweet Georgia Brown

* Jeff and Shad Duet

John Cowan - Bass and Vocals
Jeff Autry - Guitar and Vocals
John Frazier - Mandolin and Vocals
Shad Cobb - Fiddle and Vocals
Bryon Larrance - Drums

Flac Fingerprint 

johncowan2009-08-10d01t01.flac:87926f24725c9612df6f1ad9b7083218
johncowan2009-08-10d01t02.flac:4f799498b2ba771736f81cf8c1821610
johncowan2009-08-10d01t03.flac:67fa5543fa168af487cbff7521002df3
johncowan2009-08-10d01t04.flac:3d43455129a7b951095fd27afc6bd839
johncowan2009-08-10d01t05.flac:276e98fcaaf152248c1a1c5e33341349
johncowan2009-08-10d01t06.flac:789aa1018a4cccda64e863d59f586cbf
johncowan2009-08-10d01t07.flac:fd0f959d36e8af2cd9196039bae1f4eb
johncowan2009-08-10d01t08.flac:7cc85d510b36899817caf762f54f6df9
johncowan2009-08-10d01t09.flac:89aba4ebd5f47d4a77414d5a8f757f2b
johncowan2009-08-10d01t10.flac:5620c3d9694fe28a9c5ecfc24438f8f6
johncowan2009-08-10d01t11.flac:e72da735060e69cda0f375bc9d80675d
johncowan2009-08-10d01t12.flac:af52a0ed8f2dc8b1cc6e857a217fcce9
johncowan2009-08-10d01t13.flac:ad0c7c7ab7d21eefb948f5cd4cdf16fe
johncowan2009-08-10d02t01.flac:3bb680d54bd4e31fbbf7aa776245f624
johncowan2009-08-10d02t02.flac:61b80a36aba184e0e52dd5e9facebe6d
johncowan2009-08-10d02t03.flac:b61d4819d94533bd02953e482aff867c
johncowan2009-08-10d02t04.flac:92f3e4418f2059a71e5a0a995518c977
johncowan2009-08-10d02t05.flac:bb7e923e549b9929c5875c0fa59c6d08
johncowan2009-08-10d02t06.flac:42ca6e36400fe4d13153246f81d80422
johncowan2009-08-10d02t07.flac:f4dc25036d6ebc51b12001c42a92077c
johncowan2009-08-10d02t08.flac:7bb8e6a694d68adc1ebeb42be770119d
johncowan2009-08-10d02t09.flac:01b127f04751787a1d8a0c1bbac8a403
johncowan2009-08-10d02t10.flac:6137a771663c7019d71636d60114d882
johncowan2009-08-10d02t11.flac:de09c47a9450a972ccd89cbe9102fbf6
johncowan2009-08-10d02t12.flac:e34f794a07a7bab29d38838b9607494a
johncowan2009-08-10d02t13.flac:ab542dd8018ebf5cbc718b5d8189fc32
johncowan2009-08-10d02t14.flac:83acffef306f94eaeb3a62b2c64350b5
johncowan2009-08-10d02t15.flac:33da0b1b3f7aefc3d98bb6ce9a2a0e7f
johncowan2009-08-10d02t16.flac:5259fa7d9ce9dd5306112e9df0cd5988

shntool 

    length     expanded size    cdr  WAVE problems  fmt   ratio  filename
     1:09.29       12239852 B   ---   --   ---xx   flac  0.3468  johncowan2009-08-10d01t01.flac
     3:18.35       35009564 B   ---   --   ---xx   flac  0.4985  johncowan2009-08-10d01t02.flac
     1:52.34       19836812 B   ---   --   ---xx   flac  0.5627  johncowan2009-08-10d01t03.flac
     4:27.48       47211740 B   ---   --   ---xx   flac  0.4928  johncowan2009-08-10d01t04.flac
     4:23.27       46456748 B   ---   --   ---xx   flac  0.5914  johncowan2009-08-10d01t05.flac
     5:09.73       54679340 B   ---   --   ---xx   flac  0.5219  johncowan2009-08-10d01t06.flac
     3:15.74       34572092 B   ---   --   ---xx   flac  0.3270  johncowan2009-08-10d01t07.flac
     4:34.35       48415964 B   ---   --   ---xx   flac  0.4642  johncowan2009-08-10d01t08.flac
     4:54.52       51983948 B   ---   --   ---xx   flac  0.5288  johncowan2009-08-10d01t09.flac
     5:55.19       62666732 B   ---   --   ---xx   flac  0.5124  johncowan2009-08-10d01t10.flac
     8:37.53       91323500 B   ---   --   ---xx   flac  0.4490  johncowan2009-08-10d01t11.flac
     6:39.46       70491836 B   ---   --   ---xx   flac  0.5206  johncowan2009-08-10d01t12.flac
     4:27.07       47115308 B   ---   --   ---xx   flac  0.5004  johncowan2009-08-10d01t13.flac
     0:39.13        6910220 B   ---   --   ---xx   flac  0.2907  johncowan2009-08-10d02t01.flac
     5:19.73       56443340 B   ---   --   ---xx   flac  0.4681  johncowan2009-08-10d02t02.flac
     7:41.10       81343964 B   ---   --   ---xx   flac  0.5572  johncowan2009-08-10d02t03.flac
     3:04.38       32547020 B   ---   --   ---xx   flac  0.4638  johncowan2009-08-10d02t04.flac
     0:34.65        6150524 B   ---   --   ---xx   flac  0.4166  johncowan2009-08-10d02t05.flac
     2:17.65       24319724 B   ---   --   ---xx   flac  0.3729  johncowan2009-08-10d02t06.flac
     2:33.13       27019820 B   ---   --   ---xx   flac  0.5443  johncowan2009-08-10d02t07.flac
     3:40.08       38826860 B   ---   --   ---xx   flac  0.3596  johncowan2009-08-10d02t08.flac
     5:09.29       54575852 B   ---   --   ---xx   flac  0.4586  johncowan2009-08-10d02t09.flac
     2:41.11       28426316 B   ---   --   ---xx   flac  0.4825  johncowan2009-08-10d02t10.flac
     6:13.33       65874860 B   ---   --   ---xx   flac  0.4529  johncowan2009-08-10d02t11.flac
     5:32.39       58656572 B   ---   --   ---xx   flac  0.5679  johncowan2009-08-10d02t12.flac
     0:55.37        9789068 B   ---   --   ---xx   flac  0.2656  johncowan2009-08-10d02t13.flac
     3:56.57       41764508 B   ---   --   ---xx   flac  0.3743  johncowan2009-08-10d02t14.flac
     6:18.20       66726284 B   ---   --   ---xx   flac  0.4191  johncowan2009-08-10d02t15.flac
     5:42.42       60427628 B   ---   --   ---xx   flac  0.5342  johncowan2009-08-10d02t16.flac
   121:06.35     1281805996 B                            0.4808  (29 files)







More information about the bittorrent mailing list