[bittorrent] Govt Mule 2009-07-25 Masquarade Music Park, Atlanta, Ga., AKG c414b-ULS

Automated Mailer noreply-bt.e at etree.org
Mon Aug 10 15:31:12 MDT 2009


Band:           Govt Mule
Torrent Name:   Govt Mule 2009-07-25 Masquarade Music Park, Atlanta, Ga., AKG c414b-ULS
Uploaded by:    barren
DB Link:        
Details:        http://bt.etree.org/details.php?id=527415

Contact the seeder at http://db.etree.org/barren

If the link to this show does not work, it was probably removed for
being non-trade-friendly.

Description / text file:
-------------------------
Gov't Mule
Masquerade Music Park, Atlanta, GA
2009-07-25

source: AKG c414b-ULS (omni split 4'8",sbd fence, 2'rh of dfc, approx.9')>V3 (24/96)>sd722
transfer:sd722>hd>wavelab 5.01b (downsample and dither)>cdwav splits>flacfrontend
taped and transferred and seeded by: John Barren

Set I
01. Brand New Angel
02. Blind Man In The Dark
03. Larger Than Life
04. Beautifully Broken
05. Trane* >
06. Doin' It To Death Jam
07. Eternity's Breath >
08. St. Stephen Jam
09. The Letter
10. Nothing Again
11. I Think You Know What I Mean >
12. When The Levee Breaks >
13. I Think You Know What I Mean

Set 2
01. Lithium**
02. 32/20 Blues^
03. I Can't Quit You Babe
04. Lola Leave Your Light On>
05. Drums>
06. Drums & Bass >
07. Far Away
08. Bad Little Doggie
09. Thorazine Shuffle
-Encore-
10. Crowd
11. Inside Outside Woman Blues

* Dixie tease
** Danny on guitar
^ w/ Cody Dickinson & J.J. Grey

Personnel:
Warren Haynes - guitar, vocals
Matt Abts - drums
Danny Louis - keys
Jorgen Carlsson - bass

Flac Fingerprint

gm2009-07-25d1t01.flac:003aea830f1d8e90d55bee907e19dd24
gm2009-07-25d1t02.flac:03c31efd018cbcf48e7dde6443e040e2
gm2009-07-25d1t03.flac:72663ffb30db085c480f51b06ecd84d4
gm2009-07-25d1t04.flac:d29e3343c688e1db4a244fe249e69219
gm2009-07-25d1t05.flac:456810d407ab07c490f7a677e0e3e3e0
gm2009-07-25d1t06.flac:9483a813d75f4761eaf4b7bb65cb48c4
gm2009-07-25d1t07.flac:266ef582f8d21e2c976109c5f4835e1c
gm2009-07-25d1t08.flac:b696732990a8d19cca1317c296fa4e25
gm2009-07-25d1t09.flac:6904534a3e45f35cc4e02742e401be32
gm2009-07-25d1t10.flac:c0dcda92ee675d9f7f5039ab708820cc
gm2009-07-25d1t11.flac:1fe2f5572767828c112cbbf25c1cd15c
gm2009-07-25d1t12.flac:1b4287a90873404430978ab4d4e0e754
gm2009-07-25d1t13.flac:f3648a85964233f5532685b4bf55513d
gm2009-07-25d2t01.flac:b84650e86281e11f8d66c530023fc3a9
gm2009-07-25d2t02.flac:bc360ab1db1551e559beeae5762eef36
gm2009-07-25d2t03.flac:f407db74ad37b6763706293c13e202ef
gm2009-07-25d3t01.flac:cbe8865976f07ad9aa66d2d5081a2f18
gm2009-07-25d3t02.flac:69e062e03b8cd1feb9a4d85c183b1983
gm2009-07-25d3t03.flac:fd3bb9c1a051a3d46a5b44e7030e4b6a
gm2009-07-25d3t04.flac:6bca859ba85f682b27c46be472d0c656
gm2009-07-25d3t05.flac:087e62d75bbe4ef634c1b92d01241a93
gm2009-07-25d3t06.flac:f3e89fefc4cbfe71e2d901abd353ded2

shntool

 length     expanded size    cdr  WAVE problems  fmt   ratio  filename
     8:34.39       90761372 B   ---   --   ---xx   flac  0.4411  gm2009-07-25d1t01.flac
     7:12.40       76298924 B   ---   --   ---xx   flac  0.4603  gm2009-07-25d1t02.flac
     6:35.03       69685100 B   ---   --   ---xx   flac  0.4296  gm2009-07-25d1t03.flac
     7:28.66       79182476 B   ---   --   ---xx   flac  0.4255  gm2009-07-25d1t04.flac
     8:36.44       91125932 B   ---   --   ---xx   flac  0.4479  gm2009-07-25d1t05.flac
     2:22.40       25142924 B   ---   --   ---xx   flac  0.4698  gm2009-07-25d1t06.flac
     1:18.56       13890956 B   ---   --   ---xx   flac  0.3748  gm2009-07-25d1t07.flac
     4:11.42       44375228 B   ---   --   ---xx   flac  0.4513  gm2009-07-25d1t08.flac
     6:31.66       69127676 B   ---   --   ---xx   flac  0.4226  gm2009-07-25d1t09.flac
     7:00.28       74153900 B   ---   --   ---xx   flac  0.4124  gm2009-07-25d1t10.flac
     6:18.56       66810956 B   ---   --   ---xx   flac  0.4385  gm2009-07-25d1t11.flac
     2:27.30       26001404 B   ---   --   ---xx   flac  0.5066  gm2009-07-25d1t12.flac
     3:00.61       31895516 B   ---   --   ---xx   flac  0.3887  gm2009-07-25d1t13.flac
     8:51.68       93828380 B   ---   --   ---xx   flac  0.3927  gm2009-07-25d2t01.flac
    12:37.22      133586588 B   ---   --   ---xx   flac  0.4507  gm2009-07-25d2t02.flac
    10:23.63      110045420 B   ---   --   ---xx   flac  0.3991  gm2009-07-25d2t03.flac
     7:05.02       74974748 B   ---   --   ---xx   flac  0.4560  gm2009-07-25d3t01.flac
     8:05.23       85608140 B   ---   --   ---xx   flac  0.4078  gm2009-07-25d3t02.flac
     2:58.09       31420412 B   ---   --   ---xx   flac  0.4007  gm2009-07-25d3t03.flac
    12:52.48      136293740 B   ---   --   ---xx   flac  0.3726  gm2009-07-25d3t04.flac
     4:18.47       45621788 B   ---   --   ---xx   flac  0.4501  gm2009-07-25d3t05.flac
    13:48.32      146134508 B   ---   --   ---xx   flac  0.4389  gm2009-07-25d3t06.flac
     2:07.60       22543964 B   ---   --   ---xx   flac  0.3369  gm2009-07-25d3t07.flac
    10:59.65      116400524 B   ---   --   ---xx   flac  0.4427  gm2009-07-25d3t08.flac
   165:48.35     1754910576 B                            0.4265  (24 files)





More information about the bittorrent mailing list