[bittorrent] Bobby Lee Rogers Nelson Ledges Garretsville, Ohio 7/31/2009

Automated Mailer noreply-bt.e at etree.org
Mon Aug 10 13:33:34 MDT 2009


Band:           Other
Torrent Name:   Bobby Lee Rogers Nelson Ledges Garretsville, Ohio 7/31/2009
Uploaded by:    zmanatl
DB Link:        
Details:        http://bt.etree.org/details.php?id=527411

Contact the seeder at http://db.etree.org/zmanatl

If the link to this show does not work, it was probably removed for
being non-trade-friendly.

Description / text file:
-------------------------
Bobby Lee Rogers - Late Night
Jerry Garcia's Birthday Bash
Nelson Ledges Quarry Park
Garretsville, Ohio
7/31/2009

Source: Schoeps CCM4V'S(din)>Lunatec V2>Benchmark AD2K>
Sound Devices 722 (24/48) 
Location: FOB/DFC/KFC/ZFC/AARP 17' From Stage, 6 1/2' High
DSP: Sound Devices 722>Sound Forge 9.0>CD Wave>flac(16)
Recorded By: Z-Man
Seeded By: Z-Man
  
Disc I 

01 Lie With Me Tonight   
02 ?
03 It's Time For You To Leave
04 When The World Comes Tumblin' Down >
05 Drum Solo >
06 When The World Comes Tumblin' Down >
07 You Better Hold On Tight

Disc II

01 Beggin' You To Stay
02 ?
03 ?
04 ?>
05 ?
Shak Nasti Afternoon Set With Bobby Lee Rogers:
06 Goin' Back To Lima >
07 Drum Solo >
08 Drums and Bass >
09 Goin' Back To Lima
10 ?

Bobby Lee Rogers had Shak Nasti backing him up for his late
night set.

Flac Fingerprint 

bobbyleerogers2009-07-31d01t01.flac:c46df382a902f5b846ea2560b25f5b88
bobbyleerogers2009-07-31d01t02.flac:de5656ae3b4360add1eb201ad51b9937
bobbyleerogers2009-07-31d01t03.flac:7f67e5e99e6a4e0b07d93e8752901bcb
bobbyleerogers2009-07-31d01t04.flac:8fab625781ee8c07491479ad780acf71
bobbyleerogers2009-07-31d01t05.flac:1eb25d621b6f9a1841f6b96b69b69686
bobbyleerogers2009-07-31d01t06.flac:c09874a44f5fd4d992a9c0dbf33f89a5
bobbyleerogers2009-07-31d01t07.flac:e70ab26f19ae4e7538dd8a6898c6eedb
bobbyleerogers2009-07-31d01t08.flac:90dcbbea80d78c3bcfadafa4e4424e14
bobbyleerogers2009-07-31d02t01.flac:aeca93a1b96d10e1c910bea71a465b9e
bobbyleerogers2009-07-31d02t02.flac:1b40bce1fccf3d295206129100d1f126
bobbyleerogers2009-07-31d02t03.flac:e576b898e200b0940613f4ee7c555b01
bobbyleerogers2009-07-31d02t04.flac:1f42f70f73f7fe3c4a3639aea0c8c4ac
bobbyleerogers2009-07-31d02t05.flac:5383f6416fe2860ae8a75a6350e8258d
bobbyleerogers2009-07-31d02t06.flac:5573c8b3775ed94cfc144f10ba10e629
bobbyleerogers2009-07-31d02t07.flac:482545b52b51bf4e00d7e82c47c1c382
bobbyleerogers2009-07-31d02t08.flac:f45a38026e2131f1bbded075f47eede3
bobbyleerogers2009-07-31d02t09.flac:e83302f081d258ebfcb2f705906daa5a
bobbyleerogers2009-07-31d02t10.flac:18fce6a228dfb4cfb324140d434560c7

shntool 

    length     expanded size    cdr  WAVE problems  fmt   ratio  filename
     6:56.18       73424780 B   ---   --   ---xx   flac  0.4352  bobbyleerogers2009-07-31d01t01.flac
     8:59.23       95133740 B   ---   --   ---xx   flac  0.5095  bobbyleerogers2009-07-31d01t02.flac
     7:34.26       80146796 B   ---   --   ---xx   flac  0.4661  bobbyleerogers2009-07-31d01t03.flac
     7:36.08       80457260 B   ---   --   ---xx   flac  0.4506  bobbyleerogers2009-07-31d01t04.flac
     5:03.52       53571548 B   ---   --   ---xx   flac  0.4843  bobbyleerogers2009-07-31d01t05.flac
     1:31.56       16184156 B   ---   --   ---xx   flac  0.5379  bobbyleerogers2009-07-31d01t06.flac
     3:12.20       33915884 B   ---   --   ---xx   flac  0.5453  bobbyleerogers2009-07-31d01t07.flac
     9:46.43      103471580 B   ---   --   ---xx   flac  0.4293  bobbyleerogers2009-07-31d01t08.flac
     8:27.12       89463068 B   ---   --   ---xx   flac  0.4626  bobbyleerogers2009-07-31d02t01.flac
     7:46.67       82360028 B   ---   --   ---xx   flac  0.3571  bobbyleerogers2009-07-31d02t02.flac
     8:04.07       85394108 B   ---   --   ---xx   flac  0.3612  bobbyleerogers2009-07-31d02t03.flac
     5:55.55       62751404 B   ---   --   ---xx   flac  0.3255  bobbyleerogers2009-07-31d02t04.flac
     4:18.48       45624140 B   ---   --   ---xx   flac  0.4889  bobbyleerogers2009-07-31d02t05.flac
     2:56.57       31180508 B   ---   --   ---xx   flac  0.4840  bobbyleerogers2009-07-31d02t06.flac
     2:12.19       23329532 B   ---   --   ---xx   flac  0.4348  bobbyleerogers2009-07-31d02t07.flac
     1:08.70       12159884 B   ---   --   ---xx   flac  0.3556  bobbyleerogers2009-07-31d02t08.flac
     2:03.09       21718412 B   ---   --   ---xx   flac  0.3706  bobbyleerogers2009-07-31d02t09.flac
    12:39.64      134038172 B   ---   --   ---xx   flac  0.4448  bobbyleerogers2009-07-31d02t10.flac
   106:13.54     1124325000 B                            0.4387  (18 files)


 



More information about the bittorrent mailing list