[bittorrent] Spikedrivers Goodale Park Columbus, Ohio 8/9/2009

Automated Mailer noreply-bt.e at etree.org
Mon Aug 10 08:51:55 MDT 2009


Band:           Other
Torrent Name:   Spikedrivers Goodale Park Columbus, Ohio 8/9/2009
Uploaded by:    zmanatl
DB Link:        
Details:        http://bt.etree.org/details.php?id=527407

Contact the seeder at http://db.etree.org/zmanatl

If the link to this show does not work, it was probably removed for
being non-trade-friendly.

Description / text file:
-------------------------
Spikedrivers
Goodale Park Music Series
Goodale Park
Columbus, Ohio
8/9/2009

Source: Schoeps CCM4V'S(din)>Lunatec V2>Benchmark AD2K>
Sound Devices 722 (24/48) 
Location: FOB/DLFC/KFC/ZFC/AARP 17' From Stage, Split 6', 6' High
DSP: Sound Devices 722>Sound Forge 9.0>CD Wave>flac(16)
Recorded By: Z-Man
Seeded By: Z-Man
  
Disc I

01 Announcements and Introduction By Alex Kelly
02 *Got The Blues So Bad
03 #Glory, Glory, Halleluya
04 Texio Heart Throb
05 Ain't That Bad
06 Gather Round
07 ?
08 Like Water
09 America Hit Below The Bible Belt

Disc II

01 St. James Infirmary
02 My Babe
03 Vincent Black Lightning
04 Jolene
05 Good Lovin'
06 Lay Me Down
07 Ballad Of John Dillinger
08 Band Introductions/Alex Kelly Outro

* Jesse On The Acoustic Guitar, He Played the Fender Tornado Electric Guitar
For The Rest Of The Show.
# First Time Played

Flac Fingerprint 

spikedrivers2009-08-09d01t01.flac:198081a76bf976b8739f7d63930750fa
spikedrivers2009-08-09d01t02.flac:82e86255c45a2fbf57475fe5432fc609
spikedrivers2009-08-09d01t03.flac:70c00fdc429abd494e0d890c730eea85
spikedrivers2009-08-09d01t04.flac:4cf902720e9f7c196c02eef2ba405465
spikedrivers2009-08-09d01t05.flac:60adf9167ac1a38686152379d93feee5
spikedrivers2009-08-09d01t06.flac:5e3e9684da286f5f40be16f9dad0868a
spikedrivers2009-08-09d01t07.flac:22aa16b6cd9e192cba7172192cc643cf
spikedrivers2009-08-09d01t08.flac:edc75ac56086605e44f4a7828f48a21b
spikedrivers2009-08-09d01t09.flac:af699dbee71b701cfa469c409308714a
spikedrivers2009-08-09d02t01.flac:d2f94d27d47e7c0e4d902b970e1c6fe4
spikedrivers2009-08-09d02t02.flac:3feaddf57eb430cc2eaf5b406371714f
spikedrivers2009-08-09d02t03.flac:823415e23a5cdb542a34fcaf4fd40e48
spikedrivers2009-08-09d02t04.flac:cc05907c449e5c0652f69416fb7d237e
spikedrivers2009-08-09d02t05.flac:e4a5ebdd1a2cedecbe022f4c7e0b1191
spikedrivers2009-08-09d02t06.flac:832a133ace69e983c9e2717cb79668df
spikedrivers2009-08-09d02t07.flac:0243430573e06228b6fcfd3358b5449a
spikedrivers2009-08-09d02t08.flac:feb6ac9fa57cc94ab0430faa02542ac0

shntool 

    length     expanded size    cdr  WAVE problems  fmt   ratio  filename
     0:58.59       10370012 B   ---   --   ---xx   flac  0.4270  spikedrivers2009-08-09d01t01.flac
     5:58.38       63240620 B   ---   --   ---xx   flac  0.4988  spikedrivers2009-08-09d01t02.flac
     5:37.70       59611484 B   ---   --   ---xx   flac  0.5004  spikedrivers2009-08-09d01t03.flac
     4:02.13       42719420 B   ---   --   ---xx   flac  0.5365  spikedrivers2009-08-09d01t04.flac
     6:05.15       64421324 B   ---   --   ---xx   flac  0.5203  spikedrivers2009-08-09d01t05.flac
     4:14.28       44871500 B   ---   --   ---xx   flac  0.4500  spikedrivers2009-08-09d01t06.flac
     3:22.51       35752796 B   ---   --   ---xx   flac  0.5228  spikedrivers2009-08-09d01t07.flac
     5:31.39       58480172 B   ---   --   ---xx   flac  0.5014  spikedrivers2009-08-09d01t08.flac
     4:59.55       52873004 B   ---   --   ---xx   flac  0.5105  spikedrivers2009-08-09d01t09.flac
     7:59.62       84641468 B   ---   --   ---xx   flac  0.4313  spikedrivers2009-08-09d02t01.flac
     6:04.36       64294316 B   ---   --   ---xx   flac  0.5595  spikedrivers2009-08-09d02t02.flac
     5:04.10       53649164 B   ---   --   ---xx   flac  0.4573  spikedrivers2009-08-09d02t03.flac
     6:54.32       73104908 B   ---   --   ---xx   flac  0.5378  spikedrivers2009-08-09d02t04.flac
     4:43.25       49980044 B   ---   --   ---xx   flac  0.4775  spikedrivers2009-08-09d02t05.flac
     5:22.31       56873756 B   ---   --   ---xx   flac  0.4997  spikedrivers2009-08-09d02t06.flac
     6:39.26       70444796 B   ---   --   ---xx   flac  0.5662  spikedrivers2009-08-09d02t07.flac
     1:58.53       20939900 B   ---   --   ---xx   flac  0.4180  spikedrivers2009-08-09d02t08.flac
    85:37.43      906268684 B                            0.5017  (17 files)







More information about the bittorrent mailing list