[bittorrent] Macpodz Liberty Plaza Ann Arbor, Michigan 8/6/2009

Automated Mailer noreply-bt.e at etree.org
Sat Aug 8 12:24:14 MDT 2009


Band:           Other
Torrent Name:   Macpodz Liberty Plaza Ann Arbor, Michigan 8/6/2009
Uploaded by:    zmanatl
DB Link:        
Details:        http://bt.etree.org/details.php?id=527365

Contact the seeder at http://db.etree.org/zmanatl

If the link to this show does not work, it was probably removed for
being non-trade-friendly.

Description / text file:
-------------------------
Macpodz
Sonic Lunch
Liberty Plaza
Ann Arbor, Michigan
8/6/2009

Source: Schoeps CCM4V'S(din)>Lunatec V2>Benchmark AD2K>
Sound Devices 722 (24/48) 
Location: FOB/DLFC/KFC/ZFC/AARP 9' From Stage, 6' High
DSP: Sound Devices 722>Sound Forge 9.0>CD Wave>flac(16)
Recorded By: Z-Man
Seeded By: Z-Man
  
Disc I 

01 Followaduby
02 The Truth
03 Genius Food For Super Heroes II
04 Jam >
05 You Got Me >
06 Oh Shizzney >
07 Drum Solo >
08 Oh Shizzney
09 Triangle >
10 Mojo Rhino

Disc II  

01 Free The Weasel
02 The Butcher
03 Egg Sandwich
04 Stay >
05 Quatroliola
06 ?
07 Bohemian Grove
08 Outro with Martin Van Dycke

Flac Fingerprint 

macpodz2009-08-06d01t01.flac:ced0f4824984b298b0245077004277fa
macpodz2009-08-06d01t02.flac:9b7dc42fde7ffc4d5bf9d2df40b38a35
macpodz2009-08-06d01t03.flac:6788bd79d2935f1edc7fd4aa2b375c99
macpodz2009-08-06d01t04.flac:cf02093acac409c17d975671b7006065
macpodz2009-08-06d01t05.flac:55754e6a447bdd20688277aae8d412cd
macpodz2009-08-06d01t06.flac:9f5b1e098f50daae75539078d8b03e18
macpodz2009-08-06d01t07.flac:4ef0584c5192e02deb4c2b58c956b207
macpodz2009-08-06d01t08.flac:8d059cb40a32700b3ecfe8be566805a8
macpodz2009-08-06d01t09.flac:94410777d4324bec045af96418334687
macpodz2009-08-06d01t10.flac:6e43fde94dbe663f8b1db5c8812d2cb5
macpodz2009-08-06d02t01.flac:7f28bb059a207ed253b20e81079bec54
macpodz2009-08-06d02t02.flac:259ba86263f4f752da906231238a0875
macpodz2009-08-06d02t03.flac:303f0c066caef6086a6d2268cb18bd44
macpodz2009-08-06d02t04.flac:254104efa5ffaf6cdd4f81229b8355b9
macpodz2009-08-06d02t05.flac:352f952eab1b8876da6ca847e76713d6
macpodz2009-08-06d02t06.flac:227103597c15b65474b0230d430cce65
macpodz2009-08-06d02t07.flac:5336c81a998a86ac8a1f5c4935f2b4cb
macpodz2009-08-06d02t08.flac:2b2ce2d40f4aca2076292a1effbfb2e5

shntool 

    length     expanded size    cdr  WAVE problems  fmt   ratio  filename
     4:13.34       44709212 B   ---   --   ---xx   flac  0.5125  macpodz2009-08-06d01t01.flac
     6:09.30       65162204 B   ---   --   ---xx   flac  0.5444  macpodz2009-08-06d01t02.flac
     9:52.69      104591132 B   ---   --   ---xx   flac  0.4688  macpodz2009-08-06d01t03.flac
     2:28.02       26111948 B   ---   --   ---xx   flac  0.3775  macpodz2009-08-06d01t04.flac
     7:20.47       77726588 B   ---   --   ---xx   flac  0.5607  macpodz2009-08-06d01t05.flac
     2:46.31       29355356 B   ---   --   ---xx   flac  0.5537  macpodz2009-08-06d01t06.flac
     2:02.19       21565532 B   ---   --   ---xx   flac  0.5832  macpodz2009-08-06d01t07.flac
     1:44.74       18519692 B   ---   --   ---xx   flac  0.4863  macpodz2009-08-06d01t08.flac
     5:13.67       55370828 B   ---   --   ---xx   flac  0.5022  macpodz2009-08-06d01t09.flac
     6:12.42       65719628 B   ---   --   ---xx   flac  0.5500  macpodz2009-08-06d01t10.flac
     5:48.41       61483676 B   ---   --   ---xx   flac  0.4941  macpodz2009-08-06d02t01.flac
     5:41.19       60197132 B   ---   --   ---xx   flac  0.4994  macpodz2009-08-06d02t02.flac
    12:28.08      131966060 B   ---   --   ---xx   flac  0.5140  macpodz2009-08-06d02t03.flac
     4:29.16       47489276 B   ---   --   ---xx   flac  0.4184  macpodz2009-08-06d02t04.flac
     9:24.05       99501404 B   ---   --   ---xx   flac  0.5259  macpodz2009-08-06d02t05.flac
     9:32.32      100976108 B   ---   --   ---xx   flac  0.4855  macpodz2009-08-06d02t06.flac
     5:50.65       61892924 B   ---   --   ---xx   flac  0.5607  macpodz2009-08-06d02t07.flac
     1:21.67       14446028 B   ---   --   ---xx   flac  0.3881  macpodz2009-08-06d02t08.flac
   102:40.68     1086784728 B                            0.5083  (18 files)








More information about the bittorrent mailing list