[bittorrent] Macpodz Circus Bar Ann Arbor, Michigan 8/5/2009

Automated Mailer noreply-bt.e at etree.org
Fri Aug 7 11:04:28 MDT 2009


Band:           Other
Torrent Name:   Macpodz Circus Bar Ann Arbor, Michigan 8/5/2009
Uploaded by:    zmanatl
DB Link:        
Details:        http://bt.etree.org/details.php?id=527339

Contact the seeder at http://db.etree.org/zmanatl

If the link to this show does not work, it was probably removed for
being non-trade-friendly.

Description / text file:
-------------------------
Macpodz
Circus Bar
Ann Arbor, Michigan
8/5/2009

Source: Schoeps CCM4V'S(din)>Lunatec V2>Benchmark AD2K>
Sound Devices 722 (24/48) 
Location: FOB/DFC/KFC/ZFC/AARP 5' From Stage, 7' High
DSP: Sound Devices 722>Sound Forge 9.0>CD Wave>flac(16)
Recorded By: Z-Man
Seeded By: Z-Man
  
Disc I 

01 Introduction By Greg Burns
02 Big Chief
03 ?
04 Bohemian Grove
05 Dr. Epstein
06 Straight Life
07 Ultra Pneumono Silicone >
08 ?
09 The Truth >
10 Are You Afraid

Flac Fingerprint 

macpodz2009-08-05d01t01.flac:2991c4852464a8858820d339a6f65c2e
macpodz2009-08-05d01t02.flac:c58af973329808bc60d4aec0b2c562f0
macpodz2009-08-05d01t03.flac:5e48422027813ac0b242df5c0d43439a
macpodz2009-08-05d01t04.flac:3d332c9f74d2c9e084221e6d13813be9
macpodz2009-08-05d01t05.flac:5227cf1f92dc41c609c85c66f40c110d
macpodz2009-08-05d01t06.flac:94641a0f9f4a342da4dba2d1d4673ae2
macpodz2009-08-05d01t07.flac:345b76f814c6a1536b27d83b9d99a971
macpodz2009-08-05d01t08.flac:13353c38c5ddfff61465ce3ddeee3213
macpodz2009-08-05d01t09.flac:9b84a42513f02d8fd59b51b7e9ae5ce5
macpodz2009-08-05d01t10.flac:d411b03f29062024508039b9acf5a786

shntool 3.0.4

    length     expanded size    cdr  WAVE problems  fmt   ratio  filename
     1:12.09       12722012 B   ---   --   ---xx   flac  0.3802  macpodz2009-08-05d01t01.flac
     4:46.25       50509244 B   ---   --   ---xx   flac  0.4872  macpodz2009-08-05d01t02.flac
     6:44.03       71272700 B   ---   --   ---xx   flac  0.5567  macpodz2009-08-05d01t03.flac
     6:17.24       66559292 B   ---   --   ---xx   flac  0.5070  macpodz2009-08-05d01t04.flac
    10:47.42      114229628 B   ---   --   ---xx   flac  0.5081  macpodz2009-08-05d01t05.flac
    10:46.00      113954444 B   ---   --   ---xx   flac  0.4961  macpodz2009-08-05d01t06.flac
    10:22.28      109786700 B   ---   --   ---xx   flac  0.5200  macpodz2009-08-05d01t07.flac
     6:08.22       64966988 B   ---   --   ---xx   flac  0.5428  macpodz2009-08-05d01t08.flac
     5:01.37       53183468 B   ---   --   ---xx   flac  0.4861  macpodz2009-08-05d01t09.flac
     6:42.13       70943420 B   ---   --   ---xx   flac  0.5354  macpodz2009-08-05d01t10.flac
    68:47.53      728127896 B                            0.5131  (10 files)







 



More information about the bittorrent mailing list