[bittorrent] Keller Williams - The Mercury Theater - Austin, TX - 03-09-2001 *SBD*

Automated Mailer noreply-bt.e at etree.org
Wed Aug 5 17:55:46 MDT 2009


Band:           Keller Williams
Torrent Name:   Keller Williams - The Mercury Theater - Austin, TX - 03-09-2001 *SBD*
Uploaded by:    mckenzie9482
DB Link:        http://db.etree.org/shn/100489
Details:        http://bt.etree.org/details.php?id=527293

Contact the seeder at http://db.etree.org/mckenzie9482

If the link to this show does not work, it was probably removed for
being non-trade-friendly.

Description / text file:
-------------------------
Keller Williams
The Mercury Theater
Austin, TX
03/09/2001

source: SBD > Lou's DA-P1 > DA-P1 > Sony D8 > DAT
transfer: DAT > cd wave > SHN

notes:  Tracking is slightly off, but not worth re-tracking...


set I - disc I

01. Inhale To The Chief 
02. You May Be Right 
03. Tribe
04. All Along The Watchtower
05. Sally Sullivan > 
06. Kiwi & The Apricot >
07. More Than A Little >
08. Roshambo >
09. Vacate 

set I - disc II

01. Revelation
02. Alligator Alley
03. Moondance 
04. Freeker By The Speaker
05. Freeker cont.

set II - disc III

01. Best Feeling 
02. Chillin'
03. Bob Rules > 
04. Another Brick In The Wall > 
05. Bob Rules 
06. The Juggler
07. The Juggler cont. Loop with melody (music/groove is in the heart, etc.) >
08. Fuel For The Road >
09. Toy Loop >
10. No Hablo Espanol >
11. Rockumal 
12. Crowd
e: 
13. Weight 
14. Crowd
eII: 
15. Love Bizarre

----------------------------------------------------------------
    length     expanded size    cdr  WAVE problems  fmt   ratio  filename
     6:39.71       70550636 B   ---   --   ---xx    shn  0.5556  kw01-03-09d1t01.shn
     4:40.56       49523756 B   ---   --   ---xx    shn  0.5647  kw01-03-09d1t02.shn
     5:47.23       61264940 B   ---   --   ---xx    shn  0.5601  kw01-03-09d1t03.shn
     5:26.57       57640508 B   ---   --   ---xx    shn  0.5827  kw01-03-09d1t04.shn
     5:32.21       58614236 B   ---   --   ---xx    shn  0.5297  kw01-03-09d1t05.shn
     4:15.71       45149036 B   ---   --   ---xx    shn  0.5547  kw01-03-09d1t06.shn
     7:58.65       84472124 B   ---   --   ---xx    shn  0.5440  kw01-03-09d1t07.shn
     5:54.65       62598524 B   ---   --   ---xx    shn  0.6022  kw01-03-09d1t08.shn
     6:49.13       72177544 B   -b-   --   ---xx    shn  0.5717  kw01-03-09d1t09.shn
     4:09.11       43949516 B   ---   --   ---xx    shn  0.5407  kw01-03-09d2t01.shn
     3:38.26       38516396 B   ---   --   ---xx    shn  0.5852  kw01-03-09d2t02.shn
     6:30.40       68890124 B   ---   --   ---xx    shn  0.5538  kw01-03-09d2t03.shn
     6:25.17       67954028 B   ---   --   ---xx    shn  0.5829  kw01-03-09d2t04.shn
     9:21.59       99099132 B   -b-   --   ---xx    shn  0.6062  kw01-03-09d2t05.shn
    11:05.17      117346028 B   ---   --   ---xx    shn  0.5052  kw01-03-09d3t01.shn
     4:33.20       48204284 B   ---   --   ---xx    shn  0.4924  kw01-03-09d3t02.shn
     4:06.08       43413260 B   ---   --   ---xx    shn  0.5081  kw01-03-09d3t03.shn
     5:13.27       55276748 B   ---   --   ---xx    shn  0.5291  kw01-03-09d3t04.shn
     1:59.08       21010460 B   ---   --   ---xx    shn  0.5010  kw01-03-09d3t05.shn
     2:40.55       28353404 B   ---   --   ---xx    shn  0.4840  kw01-03-09d3t06.shn
     9:02.07       95625308 B   ---   --   ---xx    shn  0.5679  kw01-03-09d3t07.shn
    11:09.03      118018700 B   ---   --   ---xx    shn  0.4982  kw01-03-09d3t08.shn
     6:28.21       68492636 B   ---   --   ---xx    shn  0.4613  kw01-03-09d3t09.shn
     2:47.62       29604668 B   ---   --   ---xx    shn  0.4933  kw01-03-09d3t10.shn
     2:47.13       29489420 B   ---   --   ---xx    shn  0.5584  kw01-03-09d3t11.shn
     1:23.15       14676524 B   ---   --   ---xx    shn  0.4284  kw01-03-09d3t12.shn
     5:28.47       57969788 B   ---   --   ---xx    shn  0.4978  kw01-03-09d3t13.shn
     1:34.70       16746284 B   ---   --   ---xx    shn  0.4281  kw01-03-09d3t14.shn
     5:56.33       62876644 B   -b-   --   ---xx    shn  0.5556  kw01-03-09d3t15.shn
   159:26.26     1687504656 B                            0.5403  (29 files)

---------------------------------------------------------------------



More information about the bittorrent mailing list