[bittorrent] gd81-09-25.sbd.miller.88822.sbeok.flac16

Automated Mailer noreply-bt.e at etree.org
Tue Aug 4 10:28:25 MDT 2009


Band:           Grateful Dead
Torrent Name:   gd81-09-25.sbd.miller.88822.sbeok.flac16
Uploaded by:    WHARFRAT73
DB Link:        http://db.etree.org/shn/88822
Details:        http://bt.etree.org/details.php?id=527267

Contact the seeder at http://db.etree.org/WHARFRAT73

If the link to this show does not work, it was probably removed for
being non-trade-friendly.

Description / text file:
-------------------------
Grateful Dead - September 25, 1981
Stabler Arena - Bethlehem, PA

Recording Info:
SBD -> Cassette Master -> Cassette -> CD

Transfer Info:
CD -> Samplitude Professional v9.12 -> FLAC
(3 Discs Audio / 2 Discs FLAC)

All Transfers and Mastering By Charlie Miller
charliemiller87 at earthlink.net
November 26, 2007

Patch Info:
AUD patches in The Music Never Stopped and Fire On The Mountain

Notes:
-- Set 2 is seamless
-- This recording basically sucks -it starts off bad and gets worse
-- The only reason I am circulating this is because I was asked to

Set 1:
d1t01 - New Minglewood Blues
d1t02 - Friend Of The Devil ->
d1t03 - El Paso
d1t04 - Peggy-O ->
d1t05 - Little Red Rooster
d1t06 - Bird Song ->
d1t07 - Beat It On Down The Line
d1t08 - Cumberland Blues
d1t09 - Passenger
d1t10 - Althea
d1t11 - The Music Never Stopped

Set 2:
d2t01 - Might As Well ->
d2t02 - Samson And Delilah
d2t03 - Scarlet Begonias ->
d2t04 - Fire On The Mountain
d2t05 - Never Trust A Woman ->
d2t06 - Lost Sailor ->
d2t07 - Saint Of Circumstance ->
d2t08 - Drums ->
d3t01 - Space ->
d3t02 - The Wheel ->
d3t03 - Sugar Magnolia ->
d3t04 - Black Peter ->
d3t05 - Around And Around ->
d3t06 - Sunshine Daydream

Encore:
d3t07 - U.S. Blues


SHNTOOL OUTPUT:
    length     expanded size   cdr  WAVE problems filename
     7:27.25       78909644    ---   --   -----   gd81-09-25d1t01.wav
     9:02.74       95782892    ---   --   -----   gd81-09-25d1t02.wav
     6:55.37       73293068    ---   --   -----   gd81-09-25d1t03.wav
     6:36.73       70026140    ---   --   -----   gd81-09-25d1t04.wav
     8:10.41       86532476    ---   --   -----   gd81-09-25d1t05.wav
    10:24.68      110233580    ---   --   -----   gd81-09-25d1t06.wav
     3:01.74       32102492    ---   --   -----   gd81-09-25d1t07.wav
     5:03.13       53479820    ---   --   -----   gd81-09-25d1t08.wav
     5:41.47       60262988    ---   --   -----   gd81-09-25d1t09.wav
     8:55.27       94437548    ---   --   -----   gd81-09-25d1t10.wav
     8:23.52       88851548    ---   --   -----   gd81-09-25d1t11.wav
     4:39.22       49267388    ---   --   -----   gd81-09-25d2t01.wav
     7:33.37       79996268    ---   --   -----   gd81-09-25d2t02.wav
    11:20.60      120093164    ---   --   -----   gd81-09-25d2t03.wav
    10:11.67      107938028    ---   --   -----   gd81-09-25d2t04.wav
     6:21.37       67295468    ---   --   -----   gd81-09-25d2t05.wav
     6:21.67       67366028    ---   --   -----   gd81-09-25d2t06.wav
     7:35.48       80374940    ---   --   -----   gd81-09-25d2t07.wav
     7:12.04       76214252    ---   --   -----   gd81-09-25d2t08.wav
     4:25.30       46816604    ---   --   -----   gd81-09-25d3t01.wav
     5:07.15       54190124    ---   --   -----   gd81-09-25d3t02.wav
     5:12.60       55177964    ---   --   -----   gd81-09-25d3t03.wav
     8:29.40       89881724    ---   --   -----   gd81-09-25d3t04.wav
     3:42.44       39264332    ---   --   -----   gd81-09-25d3t05.wav
     3:41.02       38989148    ---   --   -----   gd81-09-25d3t06.wav
     5:00.45       53025884    ---   --   -----   gd81-09-25d3t07.wav
   176:39.59     1869803512 B                     (totals for 26 files)




More information about the bittorrent mailing list