[bittorrent] Keller Williams - The Denali Foundation - Denali, AK - 07-24-2000 *SBD*

Automated Mailer noreply-bt.e at etree.org
Mon Aug 3 22:34:14 MDT 2009


Band:           Keller Williams
Torrent Name:   Keller Williams - The Denali Foundation - Denali, AK - 07-24-2000 *SBD*
Uploaded by:    mckenzie9482
DB Link:        http://db.etree.org/shn/100441
Details:        http://bt.etree.org/details.php?id=527259

Contact the seeder at http://db.etree.org/mckenzie9482

If the link to this show does not work, it was probably removed for
being non-trade-friendly.

Description / text file:
-------------------------
Keller Williams
The Denali Foundation
Denali, AK
07-24-2000

source: sbd > DA20 > Tascam CDRW700 > eac > FLAC



set I:

01. Inhale to The Chief
02. Running on Fumes >
03. One Hit Wonder >
04. Big Country
05. Dudelywha
06. Kidney in a Cooler
07. Moondance >
08. Get on up >
09. Sanford & Son

disc I

01. Thin Mint
02. Dear Emily
03. Stupid Questions
04. Blazeabago >
05. Breathe
06. Best Feeling
E:
07. Doin That Rag >
08. Down Under


----------------------------------------------------------
   length     expanded size    cdr  WAVE problems  fmt   ratio  filename
     2:58.67       31556828 B   ---   --   ---xx   flac  0.2951  kw2000-07-24d1t01.flac
     5:31.48       58501340 B   ---   --   ---xx   flac  0.2987  kw2000-07-24d1t02.flac
     3:50.57       40706108 B   ---   --   ---xx   flac  0.2929  kw2000-07-24d1t03.flac
     4:04.04       43051052 B   ---   --   ---xx   flac  0.3175  kw2000-07-24d1t04.flac
     5:56.31       62871356 B   ---   --   ---xx   flac  0.3184  kw2000-07-24d1t05.flac
     6:13.65       65950124 B   ---   --   ---xx   flac  0.3103  kw2000-07-24d1t06.flac
     5:47.05       61222604 B   ---   --   ---xx   flac  0.2974  kw2000-07-24d1t07.flac
    10:34.45      111943484 B   ---   --   ---xx   flac  0.3024  kw2000-07-24d1t08.flac
     1:35.29       16826252 B   ---   --   ---xx   flac  0.2886  kw2000-07-24d1t09.flac
     4:06.00       43394444 B   ---   --   ---xx   flac  0.2789  kw2000-07-24d2t01.flac
     3:04.42       32556428 B   ---   --   ---xx   flac  0.2918  kw2000-07-24d2t02.flac
     7:28.19       79071932 B   ---   --   ---xx   flac  0.2978  kw2000-07-24d2t03.flac
     9:36.71      101773436 B   ---   --   ---xx   flac  0.2921  kw2000-07-24d2t04.flac
     3:15.65       34550924 B   ---   --   ---xx   flac  0.2969  kw2000-07-24d2t05.flac
    10:38.63      112691420 B   ---   --   ---xx   flac  0.2950  kw2000-07-24d2t06.flac
     4:24.19       46614332 B   ---   --   ---xx   flac  0.2928  kw2000-07-24d2t07.flac
     4:49.52       51101948 B   ---   --   ---xx   flac  0.2942  kw2000-07-24d2t08.flac
    93:57.07      994384012 B                            0.2985  (17 files)

No errors occured.
---------------------------------------------------------





More information about the bittorrent mailing list