[bittorrent] gd80-10-22.sony280.wise.miller.100416.flac16

Automated Mailer noreply-bt.e at etree.org
Mon Aug 3 10:03:56 MDT 2009


Band:           Grateful Dead
Torrent Name:   gd80-10-22.sony280.wise.miller.100416.flac16
Uploaded by:    WHARFRAT73
DB Link:        http://db.etree.org/shn/100416
Details:        http://bt.etree.org/details.php?id=527245

Contact the seeder at http://db.etree.org/WHARFRAT73

If the link to this show does not work, it was probably removed for
being non-trade-friendly.

Description / text file:
-------------------------
Grateful Dead - October 22, 1980
Radio City Music Hall - New York, NY

Recording Info:
(FOB) Sony ECM-280 -> Cassette Master (Sony TC-D5M/Maxell UDXLII-C90/Dolby B)

Transfer Info:
Cassette Master (Nakamichi DR-1/Dolby B) -> Sound Devices 744T (24bit/96k) ->
Adobe Audition v1.5 -> Samplitude Professional v10.21 -> FLAC/16
(3 Discs Audio / 2 Discs FLAC)

All Transfers and Mastering By Charlie Miller
charliemiller87 at earthlink.net
August 1, 2009

Notes:
-- Recorded By Jim Wise
-- Thanks to Jim Wise for lending me his master cassettes
-- Thanks to Joe B. Jones for his help with the pitch correction

Set 1:
d1t01 - Tuning
d1t02 - Dire Wolf
d1t03 - On The Road Again
d1t04 - I've Been All Around This World
d1t05 - Monkey And The Engineer
d1t06 - To Lay Me Down
d1t07 - Heaven Help The Fool
d1t08 - Bird Song ->
d1t09 - Ripple

Set 2:
d2t01 - Tuning
d2t02 - Alabama Getaway ->
d2t03 - Greatest Story Ever Told
d2t04 - Friend Of The Devil
d2t05 - Me And My Uncle ->
d2t06 - Big River
d2t07 - Peggy-O
d2t08 - New Minglewood Blues
d2t09 - China Cat Sunflower ->
d2t10 - I Know You Rider

Set 3:
d3t01 - Tuning
d3t02 - Scarlet Begonias ->
d3t03 - Fire On The Mountain ->
d3t04 - Lost Sailor ->
d3t05 - Saint Of Circumstance ->
d3t06 - Drums ->
d3t07 - Space ->
d3t08 - Not Fade Away ->
d3t09 - Goin' Down The Road Feeling Bad ->
d3t10 - Good Lovin'

Encore:
d3t11 - U.S. Blues


SHNTOOL OUTPUT:
    length     expanded size   cdr  WAVE problems filename
     1:11.34       12604412    ---   --   -----   gd80-10-22d1t01.wav
     3:55.40       41548124    ---   --   -----   gd80-10-22d1t02.wav
     3:20.45       35385884    ---   --   -----   gd80-10-22d1t03.wav
     4:53.01       51687596    ---   --   -----   gd80-10-22d1t04.wav
     3:21.26       35517596    ---   --   -----   gd80-10-22d1t05.wav
     9:10.02       97024748    ---   --   -----   gd80-10-22d1t06.wav
     6:26.48       68203340    ---   --   -----   gd80-10-22d1t07.wav
     7:58.68       84479180    ---   --   -----   gd80-10-22d1t08.wav
     4:37.67       49020428    ---   --   -----   gd80-10-22d1t09.wav
     0:36.50        6468044    ---   --   -----   gd80-10-22d2t01.wav
     4:36.07       48702908    ---   --   -----   gd80-10-22d2t02.wav
     4:58.57       52701308    ---   --   -----   gd80-10-22d2t03.wav
    11:00.47      116534588    ---   --   -----   gd80-10-22d2t04.wav
     3:08.30       33233804    ---   --   -----   gd80-10-22d2t05.wav
     5:41.35       60234764    ---   --   -----   gd80-10-22d2t06.wav
     7:23.33       78222860    ---   --   -----   gd80-10-22d2t07.wav
     7:48.42       82654028    ---   --   -----   gd80-10-22d2t08.wav
     6:29.37       68706668    ---   --   -----   gd80-10-22d2t09.wav
     6:20.60       67173164    ---   --   -----   gd80-10-22d2t10.wav
     1:00.26       10645196    ---   --   -----   gd80-10-22d3t01.wav
     8:10.14       86468972    ---   --   -----   gd80-10-22d3t02.wav
     7:42.03       81503900    ---   --   -----   gd80-10-22d3t03.wav
     6:43.43       71190380    ---   --   -----   gd80-10-22d3t04.wav
     7:53.67       83594828    ---   --   -----   gd80-10-22d3t05.wav
     8:26.02       89263148    ---   --   -----   gd80-10-22d3t06.wav
     4:54.64       52012172    ---   --   -----   gd80-10-22d3t07.wav
     5:24.63       57301820    ---   --   -----   gd80-10-22d3t08.wav
     5:31.02       58393148    ---   --   -----   gd80-10-22d3t09.wav
     6:36.59       69993212    ---   --   -----   gd80-10-22d3t10.wav
     5:25.32       57405308    ---   --   -----   gd80-10-22d3t11.wav
   170:48.54     1807875528 B                     (totals for 30 files)




More information about the bittorrent mailing list