[bittorrent] Juggling Suns Nelson Ledges Garretsville, Ohio 7/31/2009

Automated Mailer noreply-bt.e at etree.org
Mon Aug 3 00:18:15 MDT 2009


Band:           Other
Torrent Name:   Juggling Suns Nelson Ledges Garretsville, Ohio 7/31/2009
Uploaded by:    zmanatl
DB Link:        
Details:        http://bt.etree.org/details.php?id=527239

Contact the seeder at http://db.etree.org/zmanatl

If the link to this show does not work, it was probably removed for
being non-trade-friendly.

Description / text file:
-------------------------
Juggling Suns
Jerry Garcia's Birthday Bash
Nelson Ledges Quarry Park
Garretsville, Ohio
7/31/2009

Source: Schoeps CCM4V'S(din)>Lunatec V2>Benchmark AD2K>
Sound Devices 722 (24/48) 
Location: FOB/DFC/KFC/ZFC/AARP 36' From Stage, 6' High
DSP: Sound Devices 722>Sound Forge 9.0>CD Wave>flac(16)
Recorded By: Z-Man
Seeded By: Z-Man
  
Disc I 

01 Schwagtown USA
02 Toll Taker
03 Jungle In My Heart
04 Sight
05 Arthur

Disc II

01 Wicked
02 Moonless >
03 Cresent
04 Son >
05 Drum Solo 
06 Drums and Bass >
07 Son
08 Shakedown Street

Flac fingerprint 

jugglingsuns2009-07-31d01t01.flac:cd32362cdb1a8e9cbdc79f66b877810f
jugglingsuns2009-07-31d01t02.flac:89f6b2d118f5442046e189249882b4d9
jugglingsuns2009-07-31d01t03.flac:97c7d9be3dc8fd381461e788cfada834
jugglingsuns2009-07-31d01t04.flac:25da9e7e6ee1a5b814f86922906ffdc4
jugglingsuns2009-07-31d01t05.flac:08e2b02c68151d6c394ac82b7ce83bc3
jugglingsuns2009-07-31d02t01.flac:d9b3884a7a229dab44f203b48cc6da24
jugglingsuns2009-07-31d02t02.flac:6eb5bb62913f6df782163f71caa2d601
jugglingsuns2009-07-31d02t03.flac:23913a747e9e6ae178fab88d081168e6
jugglingsuns2009-07-31d02t04.flac:b5080998908235075917b966bed7882f
jugglingsuns2009-07-31d02t05.flac:ca3b142711647a059dae52cdfe541464
jugglingsuns2009-07-31d02t06.flac:920aeb6fdd4bafbbed4ed573b98faa4f
jugglingsuns2009-07-31d02t07.flac:5a4f1a5e35cf0beb28559534e4d8ec3b
jugglingsuns2009-07-31d02t08.flac:83f193a059df5da684ff718d542f4ce0

shntool 

    length     expanded size    cdr  WAVE problems  fmt   ratio  filename
    11:22.36      120389516 B   ---   --   ---xx   flac  0.5626  jugglingsuns2009-07-31d01t01.flac
     8:28.48       89724140 B   ---   --   ---xx   flac  0.5058  jugglingsuns2009-07-31d01t02.flac
     6:54.44       73133132 B   ---   --   ---xx   flac  0.5333  jugglingsuns2009-07-31d01t03.flac
     8:58.20       94950284 B   ---   --   ---xx   flac  0.4701  jugglingsuns2009-07-31d01t04.flac
    11:18.16      119636876 B   ---   --   ---xx   flac  0.5375  jugglingsuns2009-07-31d01t05.flac
     6:59.22       73963388 B   ---   --   ---xx   flac  0.5086  jugglingsuns2009-07-31d02t01.flac
     7:09.68       75835580 B   ---   --   ---xx   flac  0.5316  jugglingsuns2009-07-31d02t02.flac
     7:30.21       79429436 B   ---   --   ---xx   flac  0.5275  jugglingsuns2009-07-31d02t03.flac
     4:04.06       43055756 B   ---   --   ---xx   flac  0.5495  jugglingsuns2009-07-31d02t04.flac
     2:20.02       24700748 B   ---   --   ---xx   flac  0.5531  jugglingsuns2009-07-31d02t05.flac
     2:55.35       30952364 B   ---   --   ---xx   flac  0.4801  jugglingsuns2009-07-31d02t06.flac
     3:44.46       39621836 B   ---   --   ---xx   flac  0.5347  jugglingsuns2009-07-31d02t07.flac
    12:11.36      129033116 B   ---   --   ---xx   flac  0.5360  jugglingsuns2009-07-31d02t08.flac
    93:57.25      994426172 B                            0.5264  (13 files)




 



More information about the bittorrent mailing list