[bittorrent] Gov't Mule Erie Basin Marina Buffalo, New York 8/2/2009

Automated Mailer noreply-bt.e at etree.org
Sun Aug 2 23:40:31 MDT 2009


Band:           Govt Mule
Torrent Name:   Gov't Mule Erie Basin Marina Buffalo, New York 8/2/2009
Uploaded by:    zmanatl
DB Link:        
Details:        http://bt.etree.org/details.php?id=527238

Contact the seeder at http://db.etree.org/zmanatl

If the link to this show does not work, it was probably removed for
being non-trade-friendly.

Description / text file:
-------------------------
Gov't Mule
Buffalo Place Rocks
Erie Basin Marina
Buffalo, New York
8/2/2009

Source: Schoeps CCM4V'S(din)>Lunatec V2>Benchmark AD2K>
Sound Devices 722 (24/48) 
Location: FOB/DFC/KFC/ZFC/AARP 50' From Stage, 6 1/2' High
DSP: Sound Devices 722>Sound Forge 9.0>CD Wave>flac(16)
Recorded By: Z-Man
Seeded By: Z-Man
  
Disc I 1st Set

01 John The Revelator >
02 Banks Of The Deep End >
03 Rockin' Horse >
04 Feel Like Breakin' Up Someones Home
05 Lively Up Yourself
06 Streamline Woman 
07 Mother Earth 
08 Effigy >
09 *Hey Joe >
10 Effigy >
11 Folsom Prison Blues Jam >
12 Effigy

Disc II

01 #Forevermore
02 So Weak, So Strong >
03 Kynd Of Bird 
04 Since I've Been Lovin' You >
05 Drum Solo >
06 Lay Your Burden Down >
07 Smokestack Lightnin' >
08 Lay Your Burden Down 
09 Lola Leave Your Light On
Encore:
10 Get Behind The Mule >
11 Piano Jam >
12 Soulshine

* I Think This May Be The First Time Played
# Warren Solo

Flac Fingerprint 

govtmule2009-08-02d01t01.flac:0d969fa53ab632ddb1a7d6d56af8b70b
govtmule2009-08-02d01t02.flac:189228d56244885cbba3fc409a35d7c0
govtmule2009-08-02d01t03.flac:f41f9431bbb53e6e9ef1f8e55b2cdb8a
govtmule2009-08-02d01t04.flac:43adc7290a5acda1a9566c95ddd56afb
govtmule2009-08-02d01t05.flac:b8d21952f4ad71705023489bd7d64c62
govtmule2009-08-02d01t06.flac:f1356785424c2e5a1f0f73ea11635065
govtmule2009-08-02d01t07.flac:70f5a98d796735743ec59fc92d44b584
govtmule2009-08-02d01t08.flac:235d8034e12756509efda6a3b9db0245
govtmule2009-08-02d01t09.flac:f2d48a6f926bdd005393793fe3d7f875
govtmule2009-08-02d01t10.flac:f52bf96ad8e493b80c1e1cec57ce69a6
govtmule2009-08-02d01t11.flac:65b5c0157c0331469f2d04dae58d8600
govtmule2009-08-02d01t12.flac:13224493dde1eb38781da4cb47479c5f
govtmule2009-08-02d02t01.flac:aa4227bfb586aa500d818bcf9bdd371c
govtmule2009-08-02d02t02.flac:3bfa3ec1172738b332f6f50c4a646741
govtmule2009-08-02d02t03.flac:3d6155f71f625922ba7bd85c09bb3545
govtmule2009-08-02d02t04.flac:49db4997c4dd90b80eb12dc093036aba
govtmule2009-08-02d02t05.flac:2e979ec765f43669788c0eff670f8ff1
govtmule2009-08-02d02t06.flac:2d322933ccb8845102b80158cdc3f3a3
govtmule2009-08-02d02t07.flac:a5ea80f549017de388b03c6a278a648a
govtmule2009-08-02d02t08.flac:e8e65fdcda2f0e6bd6052bdf3b2f1acb
govtmule2009-08-02d02t09.flac:61b215c74d420618ab2c7780b7899e4e
govtmule2009-08-02d02t10.flac:d76318c8f0180fd5635219849b4eef7e
govtmule2009-08-02d02t11.flac:d02383316d3a38f7cb2bba51b9c71131
govtmule2009-08-02d02t12.flac:0661d4d32c346773faa68007531a5d5c

shntool 

    length     expanded size    cdr  WAVE problems  fmt   ratio  filename
     6:24.50       67855244 B   ---   --   ---xx   flac  0.4263  govtmule2009-08-02d01t01.flac
     6:10.45       65373884 B   ---   --   ---xx   flac  0.4178  govtmule2009-08-02d01t02.flac
     8:51.40       93762524 B   ---   --   ---xx   flac  0.4287  govtmule2009-08-02d01t03.flac
     7:41.26       81381596 B   ---   --   ---xx   flac  0.3845  govtmule2009-08-02d01t04.flac
    10:50.20      114707084 B   ---   --   ---xx   flac  0.3665  govtmule2009-08-02d01t05.flac
     5:19.25       56330444 B   ---   --   ---xx   flac  0.4445  govtmule2009-08-02d01t06.flac
    12:04.45      127819484 B   ---   --   ---xx   flac  0.3788  govtmule2009-08-02d01t07.flac
     4:46.64       50600972 B   ---   --   ---xx   flac  0.4106  govtmule2009-08-02d01t08.flac
     4:34.27       48397148 B   ---   --   ---xx   flac  0.4275  govtmule2009-08-02d01t09.flac
     1:47.58       19011260 B   ---   --   ---xx   flac  0.4250  govtmule2009-08-02d01t10.flac
     2:22.72       25218188 B   ---   --   ---xx   flac  0.4293  govtmule2009-08-02d01t11.flac
     3:31.65       37373324 B   ---   --   ---xx   flac  0.4529  govtmule2009-08-02d01t12.flac
     4:18.05       45523004 B   ---   --   ---xx   flac  0.2744  govtmule2009-08-02d02t01.flac
     6:02.13       63887420 B   ---   --   ---xx   flac  0.3609  govtmule2009-08-02d02t02.flac
    13:54.48      147230540 B   ---   --   ---xx   flac  0.4045  govtmule2009-08-02d02t03.flac
     7:01.00       74264444 B   ---   --   ---xx   flac  0.4478  govtmule2009-08-02d02t04.flac
     8:16.33       87572060 B   ---   --   ---xx   flac  0.3794  govtmule2009-08-02d02t05.flac
     8:01.38       84937820 B   ---   --   ---xx   flac  0.3803  govtmule2009-08-02d02t06.flac
     3:44.30       39584204 B   ---   --   ---xx   flac  0.4027  govtmule2009-08-02d02t07.flac
     0:35.38        6263420 B   ---   --   ---xx   flac  0.4403  govtmule2009-08-02d02t08.flac
     7:49.39       82823372 B   ---   --   ---xx   flac  0.4394  govtmule2009-08-02d02t09.flac
     7:23.44       78248732 B   ---   --   ---xx   flac  0.3384  govtmule2009-08-02d02t10.flac
     1:06.30       11713004 B   ---   --   ---xx   flac  0.2472  govtmule2009-08-02d02t11.flac
     8:03.46       85309436 B   ---   --   ---xx   flac  0.4332  govtmule2009-08-02d02t12.flac
   150:43.01     1595188608 B                            0.3986  (24 files)

 



More information about the bittorrent mailing list