[bittorrent] Grateful Dead - 1973-07-27 Grand Prix Racecourse - Watkins Glen, NY *Matrix*

Automated Mailer noreply-bt.e at etree.org
Sun Aug 2 12:57:10 MDT 2009


Band:           Grateful Dead
Torrent Name:   Grateful Dead - 1973-07-27 Grand Prix Racecourse - Watkins Glen, NY *Matrix*
Uploaded by:    hseamons
DB Link:        http://db.etree.org/shn/100410
Details:        http://bt.etree.org/details.php?id=527226

Contact the seeder at http://db.etree.org/hseamons

If the link to this show does not work, it was probably removed for
being non-trade-friendly.

Description / text file:
-------------------------
Grateful Dead
Grand Prix Racecourse 
Watkins Glen, NY
July 27, 1973 (Soundcheck)

Jerry Garcia - Lead Guitar, Vocals
Donna Jean Godchaux - Vocals
Keith Godchaux - Keyboards
Bill Kreutzmann - Drums
Phil Lesh - Electric Bass, Vocals
Bob Weir - Rhythm Guitar, Vocals



*Matrix* 

----------------------------------------------------
SBD (shnid=27779):

Recording Info:
SBD -> Master Reel -> Dat (48k)

Transfer Info:
Dat (Sony D8) -> RME Hammerfall Digiface -> Sony Vaio C1VP ->
Samplitude v7.02 Professional -> FLAC
(2 Discs Audio / 1 Discs FLAC)

Transferred and Edited By Charlie Miller
charliemiller87 at earthlink.net
1/19/05

Notes:
-- The circulating 1st Set came labled Master Reel, but obviously is not.

[Cuts]

24 second cut in Bird Song 
15 second cut in Tennessee Jed
1:20 length cut in Half-Step 
32 second cut in Soundcheck Jam
 
----------------------------------------------------
AUD (shnid=26363):

AudMC > ? > C > DAT > WAV > SHN

unknown taper; stereo recording

A > D by Noah Weiner, October, 2004

Cassette playback on Nakamichi MR-1 > Fostex D5 DAT (A>D
only) > Turtle Beach Montego II Digital I/O > Sound Forge
(wav edits and track IDs) > SHNTOOL (SBE fix) > MKW Audio
Compression Tool (shn)

[Cuts]

Sugaree: whole track
Bird Song: from 11:21 - 11:46
Tennessee Jed: from 7:25 - 7:37
Me And My Uncle: first 00:26
Wharf Rat: from 06:33 - 07:03

---------------------------------------------------
Thank you to Charlie Miller for the SBD transfer,
and to Noah Weiner for the AUD transfer.

Matrix by Hunter Seamons using Final Cut Pro (SHN>AIFF>Final Cut>Soundtrack>WAV>FLAC16)  
August 1, 2009


Set I
-----
d1t01 - The Promised Land
d1t02 - Sugaree*
d1t03 - Mexicali Blues*
d1t04 - Bird Song
d1t05 - Big River
d1t06 - Tennessee Jed
d1t07 - Merry-Go-Round Broke Down

Set II
-----
d2t01 - Mississippi Half-Step Uptown Toodeloo
d2t02 - Me And My Uncle
d2t03 - Soundcheck Jam -> 
d2t04 - Wharf Rat
d2t05 - Around And Around


*soundboard only


Notes:

1) Promised Land in the AUD source appears to be patched from a different AUD recording.  

2) Mexicali Blues in the AUD source had some "warping" issues in the earlier portion and does not sound as good as the AUD songs that follow, so I decided not to matrix it.

3) Set 2 sounds better due to the better sounding SBD source (master reel), which is not the same as set 1.

4) Soundtrack Pro was used to clean up numerous instances of light static in the set 1 SBD source. 

5) The AUD had some tuning and stage banter between songs, which were not present on the SBD.

6) Set 2 jam is extremely stellar.


    length     expanded size    cdr  WAVE problems  fmt   ratio  filename
     3:14.39       34313372 B   ---   --   ---xx  gd73-07-27d1t01.flac
     8:01.64       84998972 B   ---   --   ---xx  gd73-07-27d1t02.flac
     5:51.59       62055212 B   ---   --   ---xx  gd73-07-27d1t03.flac
    19:08.08      202526060 B   ---   --   ---xx  gd73-07-27d1t04.flac
     6:22.44       67488332 B   ---   --   ---xx  gd73-07-27d1t05.flac
     8:17.70       87835484 B   ---   --   ---xx  gd73-07-27d1t06.flac
     1:00.64       10734572 B   ---   --   ---xx  gd73-07-27d1t07.flac
     8:11.45       86718284 B   ---   --   ---xx  gd73-07-27d2t01.flac
     5:35.15       59129324 B   ---   --   ---xx  gd73-07-27d2t02.flac
    20:02.73      212204540 B   ---   --   ---xx  gd73-07-27d2t03.flac
    10:10.15      107639324 B   ---   --   ---xx  gd73-07-27d2t04.flac
     4:46.45       50556284 B   ---   --   ---xx  gd73-07-27d2t05.flac
   100:44.16     1066199760 B                            0.5510  (12 files)





More information about the bittorrent mailing list