[bittorrent] The Spud Puppies 2009-08-01 SBD>Zoom h4 (Reunion Show/Rex Foundation Benefit)

Automated Mailer noreply-bt.e at etree.org
Sun Aug 2 08:03:03 MDT 2009


Band:           Other
Torrent Name:   The Spud Puppies 2009-08-01 SBD>Zoom h4 (Reunion Show/Rex Foundation Benefit)
Uploaded by:    MikeG
DB Link:        
Details:        http://bt.etree.org/details.php?id=527219

Contact the seeder at http://db.etree.org/MikeG

If the link to this show does not work, it was probably removed for
being non-trade-friendly.

Description / text file:
-------------------------
The Spud Puppies
Birdy's
Indianapolis, IN
08-01-2009

Source: Soundboard > Zoom H4 > SD Card @ 16bit/44.1khz
Taper Tim Williams
Transfer: SD card > PC > CDwav(tracking) > TLH > Flac Level 8
Transfer and seeding by Mike Glumb

01) Intro
02) Catfish John
03) This Old Caboose
04) Mystery Train > I Know You Rider
05) The Thrill is Gone
06) Hungarian Hoe Down*
07) Lightsburg Girl
08) Brown Eyed Women
09) 5500 Days
10) Rain
11) Iko Iko

Rex Foundation Benefit
* Unreleased Spud Puppies tune written by Gary Bole

Dave Bigley- Guitar, Vocals
Garry Bole- Accordian, Lap Steel Guitar and anything else he chooses
Kevin Donnelly- Banjo
Joe Connell- Drums
Boyd Thaxton- Mandolin, Vocals
Gary Wasson- Bass, Guitar, Vocals
Tim Williams- Percussion
Greg Ziesemer- Guitar, Bass, vocals
Kriss Luckett-Vocals

http://profile.myspace.com/index.cfm?fuseaction=user.viewprofile&friendID=48697259
http://www.gregzmusic.com/merchandise.main.html 
http://www.thespudpuppies.com/

; flac fingerprint file generated by Trader's Little Helper
; generated on August 2, 2009, at 9:36 am

TheSpudPuppies2009-08-01.d1t01.Intro.flac:c461cec12972828226e14f991ed6dfdc
TheSpudPuppies2009-08-01.d1t02.ThisOldCaboose.flac:8f974fbb813323c65d2d4f2535513c55
TheSpudPuppies2009-08-01.d1t03.MysteryTrain-IknowYouRider.flac:ed9c613e94d535d110858f15fb615ff8
TheSpudPuppies2009-08-01.d1t04.TheThrillIsGone.flac:6c4c1bb508c4655d550a26d44ec6b91a
TheSpudPuppies2009-08-01.d1t05.HungarianHoeDown.flac:1521ba3d176813fed3ecb9451aef2a92
TheSpudPuppies2009-08-01.d1t06.LightsburgGirl.flac:fcf600f45ee2816ae882bb5af7bbc60d
TheSpudPuppies2009-08-01.d1t07.BrownEyedWomen.flac:502d361193ea3f3b59e19aed6aa38e29
TheSpudPuppies2009-08-01.d1t08.DawgsWaltz.flac:6ca4d2fb88b9c68023242ec9d7abed14
TheSpudPuppies2009-08-01.d1t09.5500Days.flac:9e098781654408eff04cd0346c0b629e
TheSpudPuppies2009-08-01.d1t10.Rain.flac:32ceb8af885c450fe68f2323fe4667da
TheSpudPuppies2009-08-01.d1t11.IkoIko.flac:53d8054eed7039ea058932cd45e3cecc

 length     expanded size   cdr  WAVE problems filename
     0:54.09        9546812    ---   --   ---xx   TheSpudPuppies2009-08-01.d1t01.Intro.flac
     3:28.21       36740636    ---   --   ---xx   TheSpudPuppies2009-08-01.d1t02.ThisOldCaboose.flac
     9:16.11       98104316    ---   --   ---xx   TheSpudPuppies2009-08-01.d1t03.MysteryTrain-IknowYouRider.flac
     5:12.15       55072124    ---   --   ---xx   TheSpudPuppies2009-08-01.d1t04.TheThrillIsGone.flac
     5:27.13       57713420    ---   --   ---xx   TheSpudPuppies2009-08-01.d1t05.HungarianHoeDown.flac
     4:47.71       50793836    ---   --   ---xx   TheSpudPuppies2009-08-01.d1t06.LightsburgGirl.flac
     6:54.20       73076684    ---   --   ---xx   TheSpudPuppies2009-08-01.d1t07.BrownEyedWomen.flac
     3:41.60       39125564    ---   --   ---xx   TheSpudPuppies2009-08-01.d1t08.DawgsWaltz.flac
     4:14.60       44946764    ---   --   ---xx   TheSpudPuppies2009-08-01.d1t09.5500Days.flac
     4:16.13       45189020    ---   --   ---xx   TheSpudPuppies2009-08-01.d1t10.Rain.flac
     6:26.44       68193452    -b-   --   ---xx   TheSpudPuppies2009-08-01.d1t11.IkoIko.flac
    54:39.37      578502628 B                     (totals for 11 files, 0.4624 overall compression ratio)




More information about the bittorrent mailing list