[bittorrent] gd80-08-29.senn421.wise.miller.100390.flac16

Automated Mailer noreply-bt.e at etree.org
Sat Aug 1 11:20:48 MDT 2009


Band:           Grateful Dead
Torrent Name:   gd80-08-29.senn421.wise.miller.100390.flac16
Uploaded by:    WHARFRAT73
DB Link:        http://db.etree.org/shn/100390
Details:        http://bt.etree.org/details.php?id=527186

Contact the seeder at http://db.etree.org/WHARFRAT73

If the link to this show does not work, it was probably removed for
being non-trade-friendly.

Description / text file:
-------------------------
Grateful Dead - August 29, 1980
The Spectrum - Philadelphia, PA

Recording Info:
Sennheiser 421 -> Cassette Master (Sony TC-D5M/Maxell UDXLII-C90/Dolby B)

Transfer Info:
Cassette Master (Nakamichi DR-1/Dolby B) -> Sound Devices 744T (24bit/96k) ->
Adobe Audition v1.5 -> Samplitude Professional v10.21 -> FLAC/16
(2 Discs Audio / 2 Discs FLAC)

All Transfers and Mastering By Charlie Miller
charliemiller87 at earthlink.net
July 30, 2009

Notes:
-- Encore moved to end of 1st Set to fit show onto two discs
-- 2nd Set and Encore can be re-joined seamlessly
-- Recorded By Jim Wise
-- Tape flips in Little Red Rooster and Drums
-- Thanks to Jim Wise for lending me his master cassettes
-- Thanks to Joe B. Jones for his help with the pitch correction

Set 1:
d1t01 - Tuning
d1t02 - Alabama Getaway ->
d1t03 - Promised Land
d1t04 - Candyman
d1t05 - Me And My Uncle ->
d1t06 - Big River
d1t07 - Row Jimmy ->
d1t08 - Little Red Rooster
d1t09 - Brown Eyed Women
d1t10 - Far From Me
d1t11 - Lost Sailor->
d1t12 - Saint Of Circumstance ->
d1t13 - Deal

Set 2:
d2t01 - Tuning
d2t02 -	Greatest Story Ever Told ->
d2t03 - Althea
d2t04 - Let It Grow ->
d2t05 - He's Gone ->
d2t06 - The Other One ->
d2t07 - Drums ->
d2t08 - Space ->
d2t09 - Wharf Rat ->
d2t10 - Goin' Down The Road Feeling Bad ->
d2t11 - Around And Around ->
d2t12 - Johnny B. Goode

Encore:
d1t14 - U.S. Blues


SHNTOOL OUTPUT:
    length     expanded size   cdr  WAVE problems filename
     0:24.09        4254812    ---   --   -----   gd80-08-29d1t01.wav
     4:35.07       48526508    ---   --   -----   gd80-08-29d1t02.wav
     5:16.50       55860044    ---   --   -----   gd80-08-29d1t03.wav
     7:51.51       83204396    ---   --   -----   gd80-08-29d1t04.wav
     3:00.17       31792028    ---   --   -----   gd80-08-29d1t05.wav
     6:22.17       67424828    ---   --   -----   gd80-08-29d1t06.wav
    10:08.61      107394716    ---   --   -----   gd80-08-29d1t07.wav
     8:03.71       85368236    ---   --   -----   gd80-08-29d1t08.wav
     5:59.38       63417020    ---   --   -----   gd80-08-29d1t09.wav
     5:02.28       53338700    ---   --   -----   gd80-08-29d1t10.wav
     6:44.57       71399708    ---   --   -----   gd80-08-29d1t11.wav
     5:56.58       62934860    ---   --   -----   gd80-08-29d1t12.wav
     4:41.34       49648412    ---   --   -----   gd80-08-29d1t13.wav
     5:41.67       60310028    ---   --   -----   gd80-08-29d1t14.wav
     1:36.07       16950908    ---   --   -----   gd80-08-29d2t01.wav
     3:49.14       40428572    ---   --   -----   gd80-08-29d2t02.wav
     8:35.58       90982460    ---   --   -----   gd80-08-29d2t03.wav
     9:52.41      104525276    ---   --   -----   gd80-08-29d2t04.wav
    12:29.21      132173036    ---   --   -----   gd80-08-29d2t05.wav
     9:59.16      105701276    ---   --   -----   gd80-08-29d2t06.wav
     6:38.31       70280156    ---   --   -----   gd80-08-29d2t07.wav
     2:00.20       21215084    ---   --   -----   gd80-08-29d2t08.wav
     9:50.17      104116028    ---   --   -----   gd80-08-29d2t09.wav
     6:47.38       71884220    ---   --   -----   gd80-08-29d2t10.wav
     3:59.16       42197276    ---   --   -----   gd80-08-29d2t11.wav
     4:04.42       43140428    ---   --   -----   gd80-08-29d2t12.wav
   159:31.61     1688469016 B                     (totals for 26 files)




More information about the bittorrent mailing list