[bittorrent] Strangefolk 1998-07-05 Elevation, Tahoe City, CA

Automated Mailer noreply-bt.e at etree.org
Wed Jan 23 09:21:16 MST 2008


Band:           Strangefolk
Torrent Name:   Strangefolk 1998-07-05  Elevation, Tahoe City, CA
Uploaded by:    nhteamfocker
DB Link:        
Details:        http://bt.etree.org/details.php?id=512558

Contact the seeder at http://db.etree.org/nhteamfocker

If the link to this show does not work, it was probably removed for
being non-trade-friendly.

Description / text file:
-------------------------
Strangefolk
7/5/1998
Elevation
Tahoe City, CA


Source:

DSBD (48.0)

Conversion:

Tascam DA-20 MKII > Tascam HD-P2 > Sony Soundforge 8.0 (44.1) >
CD Wave > Flac

Taper:

Unknown

Conversion:

Patrick Price
patrickprice at comcast.net



Set 1 

1.  Tuning
2.  Dance
3.  Who I Am
4.  Stout-Hearted
5.  Furnace
6.  Paperback Book
7.  New Glock II
8.  Fountain
9.  Lines and Circles

Set 2: 

1.  Intro
2.  Blue and Grey
3.  Otis
4.  Sweet Libation
5.  Alaska
6.  Elixir
7.  Mama
8.  Sidestep Blue
9.  Neighbor
10. Woke Up
11. Encore Break

Encore: 

12. Get Down Tonight

Flac Fingerprint:

sf1998-07-05s1t01.flac:a8410c28b20e7b824be3abcb5896c0d6
sf1998-07-05s1t02.flac:fc7a42c84eaa970868c5d3ae232fa939
sf1998-07-05s1t03.flac:17b8cfc6d020ae334237e0ad945709f4
sf1998-07-05s1t04.flac:70fd3f1ac23e2b4be53ceeaeed0a6074
sf1998-07-05s1t05.flac:7e492fe25d97e3556da5750df64275fb
sf1998-07-05s1t06.flac:6da8b88a0f1f0f3d8da71e33e2bed0ad
sf1998-07-05s1t07.flac:6735eafda4c9dd8a985a8a3105780627
sf1998-07-05s1t08.flac:1ecd6457a33fb5860b523ab55fb471f2
sf1998-07-05s1t09.flac:b7fdce31cd9f8d7d21902941901388b5
sf1998-07-05s2t01.flac:d6ec2c514cb1375a56e03f82a8e2074d
sf1998-07-05s2t02.flac:09557104c37337fbedefe8dde59cf350
sf1998-07-05s2t03.flac:7cfc07d94dc56027409d9774d69c92dd
sf1998-07-05s2t04.flac:eeff3ed139bb03c406e9f445739ce56f
sf1998-07-05s2t05.flac:dc78e3754c6da0da45bdaaae3a8a59e5
sf1998-07-05s2t06.flac:43ab878d29204bb449581d945b4861ce
sf1998-07-05s2t07.flac:3ab4bb4f6f49389b8e79afa38000e488
sf1998-07-05s2t08.flac:b86790b703cd66074c8a7c02c23e4648
sf1998-07-05s2t09.flac:7d0aab417b983078882fdb8a7788c32a
sf1998-07-05s2t10.flac:e521e891f3aa540c72f2443c12595371
sf1998-07-05s2t11.flac:c140776954a39df55efac58d9c1094ed
sf1998-07-05s2t12.flac:cd22d15b99e50508c26a89eff93552eb

Shntool Output:

    length     expanded size   cdr  WAVE problems filename
     2:13.61       23604716    ---   --   ---xx   sf1998-07-05s1t01.flac
    13:53.57      147075308    ---   --   ---xx   sf1998-07-05s1t02.flac
     8:05.34       85634012    ---   --   ---xx   sf1998-07-05s1t03.flac
     6:09.45       65197484    ---   --   ---xx   sf1998-07-05s1t04.flac
     9:53.42      104704028    ---   --   ---xx   sf1998-07-05s1t05.flac
     5:55.74       62796092    ---   --   ---xx   sf1998-07-05s1t06.flac
     5:18.67       56252828    ---   --   ---xx   sf1998-07-05s1t07.flac
     7:38.25       80850044    ---   --   ---xx   sf1998-07-05s1t08.flac
    12:27.30      131841404    ---   --   ---xx   sf1998-07-05s1t09.flac
     3:32.43       37497980    ---   --   ---xx   sf1998-07-05s2t01.flac
     5:11.30       54931004    ---   --   ---xx   sf1998-07-05s2t02.flac
     4:41.27       49631948    ---   --   ---xx   sf1998-07-05s2t03.flac
     5:34.28       58983500    ---   --   ---xx   sf1998-07-05s2t04.flac
    18:04.72      191386988    ---   --   ---xx   sf1998-07-05s2t05.flac
     5:09.14       54540572    ---   --   ---xx   sf1998-07-05s2t06.flac
     9:03.44       95888732    ---   --   ---xx   sf1998-07-05s2t07.flac
     3:33.17       37613228    ---   --   ---xx   sf1998-07-05s2t08.flac
    15:14.64      161380172    ---   --   ---xx   sf1998-07-05s2t09.flac
     7:12.38       76294220    ---   --   ---xx   sf1998-07-05s2t10.flac
     1:12.38       12790220    ---   --   ---xx   sf1998-07-05s2t11.flac
     4:39.06       49229756    ---   --   ---xx   sf1998-07-05s2t12.flac
   154:46.31        1562.24 MB                    (totals for 21 files, 0.5043 overall compression ratio)




More information about the bittorrent mailing list