[bittorrent] Widespread Panic 2002-04-24 Civic Center * Savannah, GA

Automated Mailer noreply-bt.e at etree.org
Wed Jan 16 18:49:39 MST 2008


Band:           Widespread Panic
Torrent Name:   Widespread Panic 2002-04-24 Civic Center * Savannah, GA
Uploaded by:    cfox
DB Link:        
Details:        http://bt.etree.org/details.php?id=512357

Contact the seeder at http://db.etree.org/cfox

If the link to this show does not work, it was probably removed for
being non-trade-friendly.

Description / text file:
-------------------------
Widespread Panic
Civic Center
Savannah, GA
2002-04-24

source: Schoeps mk41v~>kc5~>m222~>nt222~>ad1000~>hhb-pdr1000
location: fob/dfc
dsp: dat(m)/hhb-pdr1000~>744t~>wavelab5~>cdwave~>flac(6)
recorded & seeded: charles fox

set 1 disc 1
01 Intro
02 Aunt Avis* >
03 Red Hot Mama >
04 Who Do You Belong To?
05 Radio Child
06 Rock**
07 Pickin' Up The Pieces**
08 Greta >
09 Big Wooly Mammoth >
10 Coconut  

set 2 disc 2
01 Intro
02 Don't Tell The Band
03 Machine >
04 Barstools and Dreamers
05 Clinic Cynic
06 Tall Boy >
07 Airplane >

set 2 disc 3
01 Drums*** >
02 Pilgrims
03 Ophelia
04 Proving Ground  

E: 
05 City of Dreams* >
06 Mr. Soul**  

* with John Keane on pedal steel
** with John Keane on guitar
*** with Drew Worsham on percussion
['Thank You Falettinme Be Mice Elf Agin' rap during 'Barstools and Dreamers'; 'Here Comes The Sun' tease by Dave after 'Drums'; Soundcheck: 'The Last Straw', 'Disco'] 
 
setlist compliments of everyday companion
 
ffp
wsp2002-04-24d1t01.flac:9a60f43d66a077ab825bc1c9b011b625
wsp2002-04-24d1t02.flac:fc808a264d2243af8bb1105a6689a379
wsp2002-04-24d1t03.flac:9ae3ea46afe9bb899d64ed976986836a
wsp2002-04-24d1t04.flac:08785cd210896d1a6dba046075d8740f
wsp2002-04-24d1t05.flac:244e845393ee580c7613eca5111e8375
wsp2002-04-24d1t06.flac:c8320ba2d48d3cb89a6d2e2c1c495685
wsp2002-04-24d1t07.flac:7108dd588f9a75daca0c20b129651213
wsp2002-04-24d1t08.flac:eb9a03600f11909ce65d1e497533eeae
wsp2002-04-24d1t09.flac:d0465d2cae2ce5fb293aa6eb8943f3ed
wsp2002-04-24d1t10.flac:73dbca87a703042567814216531e5ba8
wsp2002-04-24d2t01.flac:541e4eb47def3f628769bb56f23982bb
wsp2002-04-24d2t02.flac:12be45fcf4f1a0bf1ae00ec835538b2d
wsp2002-04-24d2t03.flac:397b169cf56275cb927ce470e8f518b9
wsp2002-04-24d2t04.flac:425b4ea27abf3f8e01f6a2bf06751e86
wsp2002-04-24d2t05.flac:b0f96ba776cf48ddd9b93f917d78206d
wsp2002-04-24d2t06.flac:e3c0da6f17c41e45277e75c85944a171
wsp2002-04-24d2t07.flac:5f951199ce2a457c1fdcf2168f2921b8
wsp2002-04-24d3t01.flac:2e05868232fa70e1b381181dfabf3af4
wsp2002-04-24d3t02.flac:bdba2b0b192c87534fb01a70a30cdcd8
wsp2002-04-24d3t03.flac:3fe15afa27ca07b0bdd46cda6ba8539c
wsp2002-04-24d3t04.flac:76a6cfc78adac0d20cc0552981437258
wsp2002-04-24d3t05.flac:f1361c272d6494f93ab0796b6b8d0c82
wsp2002-04-24d3t06.flac:7e4f816b9769b9bb9d6c9833b3b66e99

shntool
    length     expanded size   cdr  WAVE problems filename
     1:05.13       11496620    ---   --   ---xx   wsp2002-04-24d1t01.flac
     7:06.55       75275804    ---   --   ---xx   wsp2002-04-24d1t02.flac
     8:37.62       91344668    ---   --   ---xx   wsp2002-04-24d1t03.flac
     5:23.70       57141884    ---   --   ---xx   wsp2002-04-24d1t04.flac
     5:41.25       60211244    ---   --   ---xx   wsp2002-04-24d1t05.flac
     9:39.29      102203852    ---   --   ---xx   wsp2002-04-24d1t06.flac
     7:59.30       84566204    ---   --   ---xx   wsp2002-04-24d1t07.flac
     6:58.50       73852844    ---   --   ---xx   wsp2002-04-24d1t08.flac
     6:51.32       72575708    ---   --   ---xx   wsp2002-04-24d1t09.flac
     7:57.40       84236924    ---   --   ---xx   wsp2002-04-24d1t10.flac
     1:33.33       16482860    ---   --   ---xx   wsp2002-04-24d2t01.flac
     4:29.38       47541020    ---   --   ---xx   wsp2002-04-24d2t02.flac
     3:22.21       35682236    ---   --   ---xx   wsp2002-04-24d2t03.flac
    14:28.16      153152876    ---   --   ---xx   wsp2002-04-24d2t04.flac
     4:39.48       49328540    ---   --   ---xx   wsp2002-04-24d2t05.flac
     9:46.69      103532732    ---   --   ---xx   wsp2002-04-24d2t06.flac
    16:46.37      177545468    ---   --   ---xx   wsp2002-04-24d2t07.flac
    21:26.69      227012732    ---   --   ---xx   wsp2002-04-24d3t01.flac
     8:16.59       87633212    ---   --   ---xx   wsp2002-04-24d3t02.flac
     3:57.45       41912684    ---   --   ---xx   wsp2002-04-24d3t03.flac
    11:40.23      123534140    ---   --   ---xx   wsp2002-04-24d3t04.flac
     8:30.44       90067532    ---   --   ---xx   wsp2002-04-24d3t05.flac
     7:10.21       75901436    ---   --   ---xx   wsp2002-04-24d3t06.flac
   183:30.29     1942233220 B                     (totals for 23 files, 0.5437 overall compression ratio)




More information about the bittorrent mailing list