[bittorrent] Widespread Panic - 12/30/2007 - Philips Arena - Atlanta, GA - Schoeps mk41 - 16bit

Automated Mailer noreply-bt.e at etree.org
Mon Jan 7 20:45:13 MST 2008


Band:           Widespread Panic
Torrent Name:   Widespread Panic - 12/30/2007 - Philips Arena - Atlanta, GA - Schoeps mk41 - 16bit
Uploaded by:    funkdoc
DB Link:        
Details:        http://bt.etree.org/details.php?id=512160

Contact the seeder at http://db.etree.org/funkdoc

If the link to this show does not work, it was probably removed for
being non-trade-friendly.

Description / text file:
-------------------------
Widespread Panic
Sunday
12/30/07
Philips Arena
Atlanta, GA

Source: Schoeps mk41 -> kc5 -> cmc6's (DIN) -> m148 -> Sound Devices 702 @24/48
Location: OTS, Stand at 8ft
Transfer: Flash Card -> PC -> Wavelab 5 (3db gain) -> CDWave -> WaveLab -> flac16
Taped and transferred by Harrison Keijzer
Tracked, flac'd and seeded by Dustin Hassenstab

Disc 1
Set 1:
01. [01:09] Intro
02. [11:34] Fishwater
03. [06:20] Climb To Safety
04. [05:36] Tickle The Truth ->
05. [10:32] Henry Parsons Died
06. [17:27] Dirty Business ->
07. [05:42] Better Off
08. [07:40] Good People ->
09. [05:27] Disco ->
10. [07:23] Goin' Out West

Disc 2
Set 2:
01. [01:35] Intro
02. [06:26] Red Beans Cookin’
03. [17:27] Tie Your Shoes
04. [06:55] Walk On ->
05. [10:58] North
06. [10:14] Papa’s Home ->
07. [08:59] Drums * ->
08. [02:31] Papa’s Home

Disc 3
01. [09:15] Ribs ‘N Whiskey
02. [13:09] Fixin’ To Die
03. [12:42] Tall Boy
Encore:
04. [11:33] Slippin’ Into Darkness ** ->
05. [07:48] Rock

* with Larry Aquaviva on percussion
** with Steve Lopez on percussion

    length     expanded size   cdr  WAVE problems filename
     1:09.09       12192812    ---   --   ---xx   wsp2007-12-30.schoeps.mk41.d1t01.flac
    11:34.57      122555708    ---   --   ---xx   wsp2007-12-30.schoeps.mk41.d1t02.flac
     6:20.27       67095548    ---   --   ---xx   wsp2007-12-30.schoeps.mk41.d1t03.flac
     5:36.40       59364524    ---   --   ---xx   wsp2007-12-30.schoeps.mk41.d1t04.flac
    10:32.43      111585980    ---   --   ---xx   wsp2007-12-30.schoeps.mk41.d1t05.flac
    17:27.69      184853132    ---   --   ---xx   wsp2007-12-30.schoeps.mk41.d1t06.flac
     5:42.47       60439388    ---   --   ---xx   wsp2007-12-30.schoeps.mk41.d1t07.flac
     7:40.69       81306332    ---   --   ---xx   wsp2007-12-30.schoeps.mk41.d1t08.flac
     5:27.19       57727532    ---   --   ---xx   wsp2007-12-30.schoeps.mk41.d1t09.flac
     7:23.03       78152300    ---   --   ---xx   wsp2007-12-30.schoeps.mk41.d1t10.flac
     1:35.62       16903868    ---   --   ---xx   wsp2007-12-30.schoeps.mk41.d2t01.flac
     6:26.51       68210396    ---   --   ---xx   wsp2007-12-30.schoeps.mk41.d2t02.flac
    17:27.51      184810796    ---   --   ---xx   wsp2007-12-30.schoeps.mk41.d2t03.flac
     6:55.33       73283660    ---   --   ---xx   wsp2007-12-30.schoeps.mk41.d2t04.flac
    10:58.31      116144156    ---   --   ---xx   wsp2007-12-30.schoeps.mk41.d2t05.flac
    10:14.62      108455468    ---   --   ---xx   wsp2007-12-30.schoeps.mk41.d2t06.flac
     8:59.54       95206652    ---   --   ---xx   wsp2007-12-30.schoeps.mk41.d2t07.flac
     2:31.52       26758748    ---   --   ---xx   wsp2007-12-30.schoeps.mk41.d2t08.flac
     9:15.71       98069036    ---   --   ---xx   wsp2007-12-30.schoeps.mk41.d3t01.flac
    13:09.28      139245500    ---   --   ---xx   wsp2007-12-30.schoeps.mk41.d3t02.flac
    12:42.11      134442716    ---   --   ---xx   wsp2007-12-30.schoeps.mk41.d3t03.flac
    11:33.42      122344028    ---   --   ---xx   wsp2007-12-30.schoeps.mk41.d3t04.flac
     7:48.26       82616396    ---   --   ---xx   wsp2007-12-30.schoeps.mk41.d3t05.flac
   198:34.57     2101764676 B                     (totals for 23 files, 0.6024 overall compression ratio)


; flac fingerprint file generated by Trader's Little Helper
; generated on January 7, 2008, at 9:06 pm

wsp2007-12-30.schoeps.mk41.d1t01.flac:a0ba1aa8707ad144dd2739bc06f740e2
wsp2007-12-30.schoeps.mk41.d1t02.flac:71b24d16875ed1ab924a3b72161fe204
wsp2007-12-30.schoeps.mk41.d1t03.flac:31c2ce6638d39179f3c8a9f0a3114057
wsp2007-12-30.schoeps.mk41.d1t04.flac:3013118a28c21a25bd9c880bb0035006
wsp2007-12-30.schoeps.mk41.d1t05.flac:154b2d2830de093d4b16b4620ecbcda7
wsp2007-12-30.schoeps.mk41.d1t06.flac:39f03a5b88aa46e3e8c12d7052e9b9a4
wsp2007-12-30.schoeps.mk41.d1t07.flac:f074d1f1122dc13e50605aabd8c01300
wsp2007-12-30.schoeps.mk41.d1t08.flac:627e9298d9918fff6760f89fafdd0fe0
wsp2007-12-30.schoeps.mk41.d1t09.flac:ff244dd88a448c63d6f1826a93dbcd7a
wsp2007-12-30.schoeps.mk41.d1t10.flac:017c33eede3a66b96fee3a244d319c29
wsp2007-12-30.schoeps.mk41.d2t01.flac:54140f8dd39b829b2827f4b458593c22
wsp2007-12-30.schoeps.mk41.d2t02.flac:dd506b446227dcc54b75790dfa88652c
wsp2007-12-30.schoeps.mk41.d2t03.flac:cd3e46b532a2a866d69cf7b057de011c
wsp2007-12-30.schoeps.mk41.d2t04.flac:953cc54fab8c249d84a355abea9a95fe
wsp2007-12-30.schoeps.mk41.d2t05.flac:3be57028e984a6f174fae306cac0d88e
wsp2007-12-30.schoeps.mk41.d2t06.flac:a70791ae4ef21ff78d1ca3cd00299e3f
wsp2007-12-30.schoeps.mk41.d2t07.flac:67e511afdf088833e0e676cc404bdf4c
wsp2007-12-30.schoeps.mk41.d2t08.flac:19024fbedb504c645f321e2eb26a984a
wsp2007-12-30.schoeps.mk41.d3t01.flac:d790f1bd6a1a415e0ddaa547c1adc96a
wsp2007-12-30.schoeps.mk41.d3t02.flac:c4f54c1eac020e588b97b931ec2113c6
wsp2007-12-30.schoeps.mk41.d3t03.flac:5ab45c4a4487ba9f2ef4bb4f2c45aafa
wsp2007-12-30.schoeps.mk41.d3t04.flac:7b4a6482bf92e1a8dc7360f367227dcb
wsp2007-12-30.schoeps.mk41.d3t05.flac:61516df6373afb3f30ad8142b5052f5a



More information about the bittorrent mailing list