[bittorrent] October 29, 1977 - Evans Field House, Northern Illinois University - DeKalb, IL

Automated Mailer noreply-bt.e at etree.org
Mon Oct 29 21:05:11 MDT 2007


Band:           Grateful Dead
Torrent Name:   October 29, 1977 - Evans Field House, Northern Illinois University - DeKalb, IL
Uploaded by:    slimpickinsdead
DB Link:        http://db.etree.org/shninfo_detail.php?shnid=28613
Details:        http://bt.etree.org/details.php?id=510611

Contact the seeder at http://db.etree.org/slimpickinsdead

If the link to this show does not work, it was probably removed for
being non-trade-friendly.

Description / text file:
-------------------------
GRATEFUL DEAD
Saturday, October 29, 1977
Evans Field House, Northern Illinois University - DeKalb, IL

MSR>PCM>DAT>CDx?>EAC>WAV>FLAC

DISC ONE [47:20]
set one-a:
01 [05:39] Might As Well
02 [06:16] Jack Straw
03 [04:16] Dire Wolf
04 [08:56] Looks Like Rain
05 [07:37] Loser
06 [05:34] El Paso
07 [09:02] Ramble On Rose

DISC TWO [49:52]
set one-end:
01 [05:39] New Minglewood Blues
02 [07:46] It Must Have Been The Roses
03 [13:06] Let It Grow
set two-a:
01 [07:51] Bertha >
02 [06:40] Good Lovin'
03 [08:50] Friend Of The Devil

DISC THREE [79:11]
set two-end:
01 [11:49] Estimated Prophet >
02 [13:47] Eyes Of The World >
03 [07:17] Space >
04 [08:15] Saint Stephen >
05 [02:59] Drums >
06 [07:39] Not Fade Away >
07 [12:25] Black Peter >
08 [09:26] Sugar Magnolia
encore:
05 [05:32] One More Saturday Night

d1t01 fixed dropout @ 4:10
d3t02 patched splice with aud @ 5:40-6:10
d3t07 fixed dropout @ 11:07
d3t08 patched splice with aud @ 2:36-2:58

patch source: http://db.etree.org/shninfo_detail.php?shnid=8035

EAC extraction, editing, and FLAC encoding by Sean Cribbs 3/11/05.

>shntool len *.wav
    length     expanded size   cdr  WAVE problems filename
     5:39.54       59926652    ---   --   -----   gd1977-10-29d1t01.wav
     6:15.70       66314684    ---   --   -----   gd1977-10-29d1t02.wav
     4:15.66       45137276    ---   --   -----   gd1977-10-29d1t03.wav
     8:56.13       94581020    ---   --   -----   gd1977-10-29d1t04.wav
     7:36.39       80530172    ---   --   -----   gd1977-10-29d1t05.wav
     5:34.50       59035244    ---   --   -----   gd1977-10-29d1t06.wav
     9:02.01       95611196    ---   --   -----   gd1977-10-29d1t07.wav
     5:39.20       59846684    ---   --   -----   gd1977-10-29d2t01.wav
     7:46.33       82280060    ---   --   -----   gd1977-10-29d2t02.wav
    13:05.44      138577532    ---   --   -----   gd1977-10-29d2t03.wav
     7:50.72       83077388    ---   --   -----   gd1977-10-29d2t04.wav
     6:40.15       70595324    ---   --   -----   gd1977-10-29d2t05.wav
     8:49.40       93409724    ---   --   -----   gd1977-10-29d2t06.wav
    11:49.52      125189948    ---   --   -----   gd1977-10-29d3t01.wav
    13:47.51      146002796    ---   --   -----   gd1977-10-29d3t02.wav
     7:17.24       77143292    ---   --   -----   gd1977-10-29d3t03.wav
     8:14.74       87315692    ---   --   -----   gd1977-10-29d3t04.wav
     2:59.12       31603868    ---   --   -----   gd1977-10-29d3t05.wav
     7:39.08       80986460    ---   --   -----   gd1977-10-29d3t06.wav
    12:25.16      131455676    ---   --   -----   gd1977-10-29d3t07.wav
     9:26.10       99865964    ---   --   -----   gd1977-10-29d3t08.wav
     5:31.68       58548380    ---   --   -----   gd1977-10-29d3t09.wav
   176:24.07     1867035032 B                     (totals for 22 files)

96aa0f0396506e8e357413ac01ce0a10 *gd1977-10-29d1t01.flac
8ef21fb0ee4cd0177de0a13bf9c8f074 *gd1977-10-29d1t02.flac
4bed232876dd26e4f1c7d429a9782ab5 *gd1977-10-29d1t03.flac
d5cc5b38309445ebe78d6a13e9485468 *gd1977-10-29d1t04.flac
7e985a3c046e7c8d5cc014008227fc9e *gd1977-10-29d1t05.flac
a14437f8ed8a7488f9524ff062367fc7 *gd1977-10-29d1t06.flac
040563b7e70d83edb8f74a49cab4e092 *gd1977-10-29d1t07.flac
6d053fe3bb503394683152fb367a294f *gd1977-10-29d2t01.flac
1ec1d9def844145aabf9a335be0b5874 *gd1977-10-29d2t02.flac
9190dd89789c41f1f95a2436757d2e12 *gd1977-10-29d2t03.flac
a33119de0b1dce6f692c2201d02fc7be *gd1977-10-29d2t04.flac
663f0b299459695b1721b126bfac3a66 *gd1977-10-29d2t05.flac
9e54ee0d8c5f644cb3755c11d9e488e8 *gd1977-10-29d2t06.flac
17755e10b7df442b871c9dcb38fa3da5 *gd1977-10-29d3t01.flac
46dc8efb42a3361b52a0d19f873da94d *gd1977-10-29d3t02.flac
6c9d470a28172574366ffdff87283423 *gd1977-10-29d3t03.flac
c1ad9613223071362c6832bfe3c1f3be *gd1977-10-29d3t04.flac
b998a57684447b3b047b731f61f67c1d *gd1977-10-29d3t05.flac
f1135941aeeec972bac5599504cb9739 *gd1977-10-29d3t06.flac
b2b5c05845e13a8ed47e0e1810ac437c *gd1977-10-29d3t07.flac
f3d6872876af7f56ec4f4c6e7c057d7a *gd1977-10-29d3t08.flac
569b56519e83eb4cc5cad46ee73771c4 *gd1977-10-29d3t09.flac




More information about the bittorrent mailing list