[bittorrent] Widespread Panic - 10/20/2007 - Riverside Theatre - Milwaukee, WI - Nak CM1000/CP-101

Automated Mailer noreply-bt.e at etree.org
Mon Oct 29 05:40:35 MDT 2007


Band:           Widespread Panic
Torrent Name:   Widespread Panic - 10/20/2007 - Riverside Theatre - Milwaukee, WI - Nak CM1000/CP-101
Uploaded by:    funkdoc
DB Link:        
Details:        http://bt.etree.org/details.php?id=510590

Contact the seeder at http://db.etree.org/funkdoc

If the link to this show does not work, it was probably removed for
being non-trade-friendly.

Description / text file:
-------------------------
Widespread Panic
2007-10-20
----------------------------------------------------------
Riverside Theatre
Milwaukee, WI
----------------------------------------------------------

Taped by: dave kunath (o-canis) dpaulku at gmail.com 
Location: ROC 7' on light rail, balcony 
Mic Config: X-Y
Source:
Nak CM1000/CP-101 >BBee hypers> Oade T+mod UA5 (opti @16/48) > JB3 wav

Conversion: JB3/MT2496 > sb1394/CF card reader > CPC v3.02.5 (PC)/ Pc > Flac burn 
Format: 16-bit, 48 kHz 
Editing: Adobe Audition 1.0 (see Post Notes)
         CD-Wave (tracking)
         Traders Little Helper (SBE check/repair)
********************************************************************** 
/  
/ ### FREE ### 
/
/ Thank you for taking time to audit this recording.
/  
/ The musicians allowed this recording for FREE. Do NOT sell or trade this  
/ recording for profit of any kind. Keep it FREE.
/
/ Please, help ensure live recordings remain easily accessible by supporting 
/ the musicians: Attend their shows, buy their studio releases, pick up
/ some merch and bring a new friend to this music next time it's played near you.   
/
/ Spread the word
/
/   Thanks!                 
/              http://widespreadpanic.com/                 
/
/  
********************************************************************** 
The Band:
John Bell - guitar/vox
John Hermann - keys/vox
Jimmy Herring - guitar
Todd Nance - Drums/vox 
Domingo S. Ortiz - percussion/vox
David Schools - bass/vox


DISC ONE  [71:08]
Set 1

01... "Everybody ready?"  [00:53]
02. Who Do You Belong To?  [05:52]
03. Action Man  [05:04]
04. Gradle  [05:17]
05. Smoking Factory >  [05:54]
06. Hatfield  [15:37]
07. Tortured Artist >  [05:06]
08. You Got Yours >  [08:19]
09. Mercy >  [11:18]
10. North  [07:45]


DISC TWO [52:28]
Set 2

01... noodles   [00:55]
02. Conrad >  [08:53]
03. Greta >  [07:26]
04. Me and the Devil Blues/Heaven  [14:04]
05. Rebirtha >  [14:12]
06. Crippled Inside >  [06:56]


DISC THREE [61:19]
Set 2 cont.

01. Second Skin >  [14:30]
02. Airplane >  [12:30]
03. I'm Not Alone  [07:16]
04. Ain't Life Grand   [05:04]

ENCORE 

05... ovation  [05:34]
06. Down  [05:12]
07. Stagger Lee [05:51]
08. Postcard  [05:13]

Setlist from Rob Wallin


Source Notes:

Post NOTES 
(Only post processing noted below was applied to this material.)

Editing done in 16bit/48khz realm:
----------------------------------------------------------------
 - Fades - IN/out (transition between discs 2 & 3 is seamless)

 - Level adjustment via envelope - Minor balancing first tune

 - Parametric EQ - 120hz/200hz width/+2.4 db
                   970hz/3000hz width/-1.7 db
                   6100hz/8000hz width/+3.1db
		   low shelf cut @ 29hz/-5.3db	
                   Master Gain -0.5 db

 
Resample/dithered to 16bit/44.1khz
---------------------------------------------------------------


    length     expanded size   cdr  WAVE problems filename
     0:53.28        9415100    ---   --   ---xx   wsp2007-10-20cm1kEQ-d1t01.flac
     5:52.06       62106956    ---   --   ---xx   wsp2007-10-20cm1kEQ-d1t02.flac
     5:04.39       53717372    ---   --   ---xx   wsp2007-10-20cm1kEQ-d1t03.flac
     5:17.46       56027036    ---   --   ---xx   wsp2007-10-20cm1kEQ-d1t04.flac
     5:54.02       62450348    ---   --   ---xx   wsp2007-10-20cm1kEQ-d1t05.flac
    15:37.68      165446780    ---   --   ---xx   wsp2007-10-20cm1kEQ-d1t06.flac
     5:06.10       54001964    ---   --   ---xx   wsp2007-10-20cm1kEQ-d1t07.flac
     8:19.09       88044812    ---   --   ---xx   wsp2007-10-20cm1kEQ-d1t08.flac
    11:18.03      119606300    ---   --   ---xx   wsp2007-10-20cm1kEQ-d1t09.flac
     7:45.56       82157756    ---   --   ---xx   wsp2007-10-20cm1kEQ-d1t10.flac
     0:55.19        9746732    ---   --   ---xx   wsp2007-10-20cm1kEQ-d2t01.flac
     8:53.62       94167068    ---   --   ---xx   wsp2007-10-20cm1kEQ-d2t02.flac
     7:26.19       78719132    ---   --   ---xx   wsp2007-10-20cm1kEQ-d2t03.flac
    14:04.28      148947500    ---   --   ---xx   wsp2007-10-20cm1kEQ-d2t04.flac
    14:12.57      150426908    ---   --   ---xx   wsp2007-10-20cm1kEQ-d2t05.flac
     6:56.30       73453004    ---   --   ---xx   wsp2007-10-20cm1kEQ-d2t06.flac
    14:30.71      153635036    ---   --   ---xx   wsp2007-10-20cm1kEQ-d3t01.flac
    12:30.08      132318860    ---   --   ---xx   wsp2007-10-20cm1kEQ-d3t02.flac
     7:16.31       76983356    ---   --   ---xx   wsp2007-10-20cm1kEQ-d3t03.flac
     5:10.18       54726380    ---   --   ---xx   wsp2007-10-20cm1kEQ-d3t04.flac
     5:34.02       58922348    ---   --   ---xx   wsp2007-10-20cm1kEQ-d3t05.flac
     5:12.47       55147388    ---   --   ---xx   wsp2007-10-20cm1kEQ-d3t06.flac
     5:51.31       61989356    ---   --   ---xx   wsp2007-10-20cm1kEQ-d3t07.flac
     5:13.58       55349660    ---   --   ---xx   wsp2007-10-20cm1kEQ-d3t08.flac
   184:56.73     1957507152 B                     (totals for 24 files, 0.6186 overall compression ratio)

; flac fingerprint file generated by Trader's Little Helper
; generated on October 24, 2007, at 5:49 am

wsp2007-10-20cm1kEQ-d1t01.flac:054c4428755aad836155f9f26acac487
wsp2007-10-20cm1kEQ-d1t02.flac:e1d3c0ecfad0ff0e85a19f5ed2ec28be
wsp2007-10-20cm1kEQ-d1t03.flac:15aaa165cfef3ae722240340bc31868e
wsp2007-10-20cm1kEQ-d1t04.flac:e7c2581bd88e8bb48f8929c9715bf54f
wsp2007-10-20cm1kEQ-d1t05.flac:0bce0010686f3fb874054212572adaa2
wsp2007-10-20cm1kEQ-d1t06.flac:5c98eccfe8eb15012594cf5e8ab29cb7
wsp2007-10-20cm1kEQ-d1t07.flac:c96a23276fe1cec340c86d461634b07b
wsp2007-10-20cm1kEQ-d1t08.flac:78829cb4bdb0edc8d35696a5793d3fcf
wsp2007-10-20cm1kEQ-d1t09.flac:ffa80aa5e1d9c8911d6b4d7fe8f28dd7
wsp2007-10-20cm1kEQ-d1t10.flac:27c8383389e2944a04eff18884d0bc41
wsp2007-10-20cm1kEQ-d2t01.flac:619acc1885e6c5962d5535cc56d8a27e
wsp2007-10-20cm1kEQ-d2t02.flac:128ebcff402f5d22e3303466d6955b18
wsp2007-10-20cm1kEQ-d2t03.flac:caa5ff89700c9da86477f1e8448ccd14
wsp2007-10-20cm1kEQ-d2t04.flac:4ce41fd60a402c7cf5706e20848801d6
wsp2007-10-20cm1kEQ-d2t05.flac:702aff3c20d84c95eaefa019f284e9ef
wsp2007-10-20cm1kEQ-d2t06.flac:a45391037ef24f3ef04adc2c36d1257d
wsp2007-10-20cm1kEQ-d3t01.flac:72108c7fe7eefdb65314cccc9e08dd2d
wsp2007-10-20cm1kEQ-d3t02.flac:a7073427791c98fd780ff69ed3ea7002
wsp2007-10-20cm1kEQ-d3t03.flac:b4d8ba3fcf36cef0a1be5f4ee19b990c
wsp2007-10-20cm1kEQ-d3t04.flac:ca0b4598b18008fce974406b6b654055
wsp2007-10-20cm1kEQ-d3t05.flac:faa303dd54d76f8b111e013f5d047569
wsp2007-10-20cm1kEQ-d3t06.flac:c3eb2c0968630c78e4a0e4d06261bea8
wsp2007-10-20cm1kEQ-d3t07.flac:0e7928115bf49c7e7252cd8f5e98b0d8
wsp2007-10-20cm1kEQ-d3t08.flac:0d24257d3badb6ee481620c09523ccb7




More information about the bittorrent mailing list