[bittorrent] GD, MSG NYC, 09-08-1991, DAud New Source, 48k

Automated Mailer noreply-bt.e at etree.org
Sat Oct 27 13:56:12 MDT 2007


Band:           Grateful Dead
Torrent Name:   GD, MSG NYC, 09-08-1991, DAud New Source, 48k
Uploaded by:    nfagdtrfb
DB Link:        
Details:        http://bt.etree.org/details.php?id=510550

Contact the seeder at http://db.etree.org/nfagdtrfb

If the link to this show does not work, it was probably removed for
being non-trade-friendly.

Description / text file:
-------------------------
GRATEFUL DEAD 
Madison Square Garden 
New York NY 
09-08-1991 

48kHz (16-bit) file-set 

s1t01 crowd & tuning 
s1t02 Touch of Grey > 
s1t03 Greatest Story Ever Told 
s1t04 Loser 
s1t05 Minglewood Blues 
s1t06 Candyman 
s1t07 Big River > 
s1t08 Maggie's Farm 
s1t09 Row Jimmy 
s1t10 Let it Grow 

s2t01 crowd & tuning 
s2t02 Samson & Delilah > 
s2t03 Eyes of the World > 
s2t04 Saint of Circumstance > 
s2t05 Dark Star jam > Bob/Phil/Bruce jam > 
s2t06 Drums > 
s2t07 Mickey Space > 
s2t08 Space > 
s2t09 The Other One > 
s2t10 Wharf Rat > 
s2t11 Good Lovin' 
s2t12 crowd & tuning 
s2t13 Encore: Attics of My Life 

AUD Source: Schoeps CMC3/MK4 (ORTF) > unknown power supply > Panasonic 
SV-255 (lead deck) > Coax SPDIF > Casio DA-7 dat (first deck out) > Agfa 
Dat tape. Mics on 7-foot stand, back of floor center, directly behind 
the lighting board.  

Transfer: MAD > Sony TCD-D10P > Coax SPDIF > Audiophile 2496 > Soundforge 
(at 48kHz) > CD-Wave > TLH > FLAC. Taped and transferred by Andrew F. 

Notes: 
- Soundforge used to make fades. 
- TLH used for FLAC compression and making checksums. 

md5 

9e5c2eadae4ac366e0161afe38ff1218 *gd1991-09-08s1t01.flac 
1c3c7428b5aae2fca5c955bcb9d718d8 *gd1991-09-08s1t02.flac 
a54fd21a7f0415d872a474e0fb745055 *gd1991-09-08s1t03.flac 
de4aa47305f7e48d79e3cc67004a7713 *gd1991-09-08s1t04.flac 
d7b322133e9e36b10a4287fc94fdccea *gd1991-09-08s1t05.flac 
f76b9c0c57b5e2acaac11ab89968d515 *gd1991-09-08s1t06.flac 
e07b46d0473313482e1ee61f48b19024 *gd1991-09-08s1t07.flac 
5bc5e76a5c260bae417d7ca212b6d481 *gd1991-09-08s1t08.flac 
8e0bea0b38ba5354271b45dd9dba2d87 *gd1991-09-08s1t09.flac 
49a926b248ba413752378982711d3aa1 *gd1991-09-08s1t10.flac 
f7d02767a7111cd2d7edfb4c55602538 *gd1991-09-08s2t01.flac 
cc825942484a7892eb1c32ed031f2ce8 *gd1991-09-08s2t02.flac 
fbe416068ff75e29df186d2f3943b41c *gd1991-09-08s2t03.flac 
b69eba67fecf26fc1957c2d3db5c7554 *gd1991-09-08s2t04.flac 
c6253bd8db71c57f69201ed88114eda2 *gd1991-09-08s2t05.flac 
21ffd91fda89fac3224c8cabe6ef4c44 *gd1991-09-08s2t06.flac 
2675ae21e3f572dd14f5166dbdd7a164 *gd1991-09-08s2t07.flac 
7926543a9c5d40c3246199a27ba65461 *gd1991-09-08s2t08.flac 
4751617988b9ad56a5378a1d3b2e58ff *gd1991-09-08s2t09.flac 
be7270855ebbee3caae7c84c1c6f1122 *gd1991-09-08s2t10.flac 
93dc4216131916faa47bef57de156a11 *gd1991-09-08s2t11.flac 
2ef630b4ed90ef2174db7c441808d894 *gd1991-09-08s2t12.flac 
cb7c3b94aa9f8df430f407196a69bfd6 *gd1991-09-08s2t13.flac 

ffp 

gd1991-09-08s1t01.flac:4e53152fbecbde4a1a117acc7c903e51 
gd1991-09-08s1t02.flac:ce32dec7a5a3c6d1ac3a2ef4144be789 
gd1991-09-08s1t03.flac:8ad0754125e87331097376d6003410e1 
gd1991-09-08s1t04.flac:1ae99c9219532686f077605ebd882b5d 
gd1991-09-08s1t05.flac:11a214a0afa8c79b7ed76440be15fc36 
gd1991-09-08s1t06.flac:8b780ebb73fd6fd868b7a8faadd9020b 
gd1991-09-08s1t07.flac:147f27b4213b198df42f6187dd9e2806 
gd1991-09-08s1t08.flac:386a396b081f69c84c7e407669b787a0 
gd1991-09-08s1t09.flac:91f1c56f9cee4757ee1ef4b364b3f7a8 
gd1991-09-08s1t10.flac:c230fe2a2ebe9ed61f51e9c1144f7cc6 
gd1991-09-08s2t01.flac:795647c8cae114cf53d881dd9012703a 
gd1991-09-08s2t02.flac:2d6ff3f365cd3456f7c502ccb95758e9 
gd1991-09-08s2t03.flac:65b5a2ad738353d9f4a384e741d8c66b 
gd1991-09-08s2t04.flac:0cf6dfbc805e1cb5b6e7ccef90bc5068 
gd1991-09-08s2t05.flac:8d156b67ab67c8e2b3b58e557f067857 
gd1991-09-08s2t06.flac:b72d250decdfc295c80b4b6d65d1af4a 
gd1991-09-08s2t07.flac:bf611e8e12d231570350358144cc964a 
gd1991-09-08s2t08.flac:ad53a8fb05c4ae22003f4e7a1ed85dcf 
gd1991-09-08s2t09.flac:ee2d116b0e82d8c745b22fbf8f023758 
gd1991-09-08s2t10.flac:6359758edcc55d797d370bdd77ca1fc7 
gd1991-09-08s2t11.flac:a6d79fb80aa4dd272611edb68584fd21 
gd1991-09-08s2t12.flac:644a49b9dfeaa6282589bc030ccb6fd7 
gd1991-09-08s2t13.flac:66311729018a1f573f689e840eceb221 

shntool 

    length     expanded size   cdr  WAVE problems filename 
     2:03.684      23747408    cxx   --   ---xx   gd1991-09-08s1t01.flac 
     6:38.813      76572204    cxx   --   ---xx   gd1991-09-08s1t02.flac 
     5:31.920      63728684    cxx   --   ---xx   gd1991-09-08s1t03.flac 
     8:48.920     101552684    cxx   --   ---xx   gd1991-09-08s1t04.flac 
     9:25.053     108490284    cxx   --   ---xx   gd1991-09-08s1t05.flac 
     7:24.653      85373484    cxx   --   ---xx   gd1991-09-08s1t06.flac 
     5:24.093      62225964    cxx   --   ---xx   gd1991-09-08s1t07.flac 
     9:25.640     108602924    cxx   --   ---xx   gd1991-09-08s1t08.flac 
     9:27.947     109045804    cxx   --   ---xx   gd1991-09-08s1t09.flac 
    14:20.993     165310664    cxx   --   ---xx   gd1991-09-08s1t10.flac 
     1:24.803      16282292    cxx   --   ---xx   gd1991-09-08s2t01.flac 
     7:58.960      91960364    cxx   --   ---xx   gd1991-09-08s2t02.flac 
    14:21.613     165429804    cxx   --   ---xx   gd1991-09-08s2t03.flac 
     7:12.120      82967084    cxx   --   ---xx   gd1991-09-08s2t04.flac 
     9:15.173     106593324    cxx   --   ---xx   gd1991-09-08s2t05.flac 
     7:06.347      81858604    cxx   --   ---xx   gd1991-09-08s2t06.flac 
     4:24.200      50726444    cxx   --   ---xx   gd1991-09-08s2t07.flac 
     8:21.373      96263724    cxx   --   ---xx   gd1991-09-08s2t08.flac 
     8:51.587     102064684    cxx   --   ---xx   gd1991-09-08s2t09.flac 
    10:06.680     116482604    cxx   --   ---xx   gd1991-09-08s2t10.flac 
     6:40.040      76807724    cxx   --   ---xx   gd1991-09-08s2t11.flac 
     1:11.947      13813804    cxx   --   ---xx   gd1991-09-08s2t12.flac 
     5:32.086      63760460    cxx   --   ---xx   gd1991-09-08s2t13.flac 
   170:58.646    1969661020 B                     (totals for 23 files, 0.5068 overall compression ratio) 

There were no sector boundary errors. 




More information about the bittorrent mailing list