[bittorrent] gd81-05-01.sbd.hinko.29087.sbeok.flacf

Automated Mailer noreply-bt.e at etree.org
Sat Oct 27 12:44:22 MDT 2007


Band:           Grateful Dead
Torrent Name:   gd81-05-01.sbd.hinko.29087.sbeok.flacf
Uploaded by:    tigerbolt
DB Link:        http://db.etree.org/myshows_detail.php?showid=7292193
Details:        http://bt.etree.org/details.php?id=510549

Contact the seeder at http://db.etree.org/tigerbolt

If the link to this show does not work, it was probably removed for
being non-trade-friendly.

Description / text file:
-------------------------
Grateful Dead
05/01/81 (Fri)
Hampton Coliseum
Hampton, VA

Source: SBD > MC > C > DAT > CD > EAC > FLAC

Disc 1
Set 1:
01. Alabama Getaway >   (04:52.01)
02. Promised Land               (04:28.55)
03. Friend Of The Devil >       (09:31.46)
04. Me and My Uncle >           (03:02.66)
05. Big River                   (06:07.15)
06. Althea >                    (08:44.56)
07. Little Red Rooster          (09:27.61)
08. Tennessee Jed >             (08:51.27)
09. Let It Grow >               (10:17.66)
10. Deal                        (07:17.09)
                     Disc Time - 72:41.27

Disc 2
Set 2:
01. Feel Like A Stranger >      (09:49.24)
02. Franklin's Tower >          (11:24.20)
03. Lost Sailor >               (06:07.61)
04. Saint Of Circumstance >     (06:27.06)
05. He's Gone >                 (11:28.56)
06. The Other One >             (05:47.03)
07. Drums >                     (09:04.22)
                     Disc Time - 60:08.42

Disc 3
01. Space >                     (07:45.00)
02. The Wheel >                 (05:53.02)
03. Wharf Rat >                 (10:17.14)
04. Sugar Magnolia              (08:49.08)
05. E: U.S. Blues               (05:08.69)
                     Disc Time - 37:53.18


EAC/FLAC by Darryl Hinko (flyerfanatic)
Any questions contact me at: flyerfanatic2817 at yahoo.com
EAC in secure mode with proper offsets used to extract
SHNtool to join and confirm sector boundries
CDwav used to split tracks
Cool Edit Pro used for all editing
FLAC frontend for encoding to FLAC

Patch Source:
Jim Wise's Master FOB Audience Cassette > Sennheiser 421 mics>
Sony D5 cassette deck > DAT > CDR
http://db.etree.org/shninfo_detail.php?shnid=2218

Notes:

- Crossfade from 4:03 d1t02 through 0:02 of d1t03; a couple of
  notes were clipped from FOTD.

- d1t06 Althea: Crossfade from 0:00 - 0:05 to fill in a couple of
  notes.

- Crossfade from 10:45 d2t02 through 0:15 of d2t03

- d3t02 The Wheel: Crossfade from 0:02 - 0:06

- d3t04 Sugar Magnolia: Crossfade from 5:18 - 5:25; This is really
  just audience fill, but when I cut out the dropout it didn't sound
  natural, so I filled in some of the highhat beats.

- d3t05 US Blues: Crossfade from 4:01 - 4:44


 length     expanded size   cdr  WAVE problems filename
     4:52.01       51511196    ---   --   ---xx   gd1981-05-01d1t01.flac
     4:28.55       47404604    ---   --   ---xx   gd1981-05-01d1t02.flac
     9:31.46      100832636    ---   --   ---xx   gd1981-05-01d1t03.flac
     3:02.66       32260076    ---   --   ---xx   gd1981-05-01d1t04.flac
     6:07.15       64774124    ---   --   ---xx   gd1981-05-01d1t05.flac
     8:44.56       92565356    ---   --   ---xx   gd1981-05-01d1t06.flac
     9:27.61      100162316    ---   --   ---xx   gd1981-05-01d1t07.flac
     8:51.27       93731948    ---   --   ---xx   gd1981-05-01d1t08.flac
    10:17.66      108994076    ---   --   ---xx   gd1981-05-01d1t09.flac
     7:17.09       77108012    ---   --   ---xx   gd1981-05-01d1t10.flac
     9:49.24      103956092    ---   --   ---xx   gd1981-05-01d2t01.flac
    11:24.20      120704684    ---   --   ---xx   gd1981-05-01d2t02.flac
     6:07.61       64882316    ---   --   ---xx   gd1981-05-01d2t03.flac
     6:27.06       68280956    ---   --   ---xx   gd1981-05-01d2t04.flac
    11:28.56      121494956    ---   --   ---xx   gd1981-05-01d2t05.flac
     5:47.03       61217900    ---   --   ---xx   gd1981-05-01d2t06.flac
     9:04.22       96013388    ---   --   ---xx   gd1981-05-01d2t07.flac
     7:45.00       82026044    ---   --   ---xx   gd1981-05-01d3t01.flac
     5:53.02       62273948    ---   --   ---xx   gd1981-05-01d3t02.flac
    10:17.14      108871772    ---   --   ---xx   gd1981-05-01d3t03.flac
     8:49.08       93334460    ---   --   ---xx   gd1981-05-01d3t04.flac
     5:08.69       54493532    ---   --   ---xx   gd1981-05-01d3t05.flac
   170:43.12     1806894392 B                     (totals for 22 files, 0.5955 overall compression ratio)


gd1981-05-01d1t01.flac:a0f6ff265e74fb2f78de6ecaba2b2630
gd1981-05-01d1t02.flac:9f7ddab1c184d2d9fbdd75eaee64808a
gd1981-05-01d1t03.flac:916414f5a1a24318d9cd518d802b226e
gd1981-05-01d1t04.flac:ab0632e7cc981b0000152d5a96a4ab17
gd1981-05-01d1t05.flac:909fb2cc323fda8ac859cd1236df0460
gd1981-05-01d1t06.flac:7a7e627ede699540d9f1acd4ef649efb
gd1981-05-01d1t07.flac:6490330a558611a974290bac1cd9d12d
gd1981-05-01d1t08.flac:27438d38d734b05758a3ecb4e80b00ff
gd1981-05-01d1t09.flac:df5364666e6d99fcb3ad2c055383f01c
gd1981-05-01d1t10.flac:daa131e2acd7e938b99a4cf34ea8c645
gd1981-05-01d2t01.flac:2364b5c82772791f834010919eaba8fa
gd1981-05-01d2t02.flac:7b00239c5d8b517025f2f7316e8054d5
gd1981-05-01d2t03.flac:8b0bc3d828683ff40e27b9c10899a145
gd1981-05-01d2t04.flac:231d42b61cc7282829f3aa729586c7c6
gd1981-05-01d2t05.flac:a43fcdba47f8304c82bec9c7a5509737
gd1981-05-01d2t06.flac:303772ca45beb244320bc07441321e21
gd1981-05-01d2t07.flac:7c749e503fc98058b91c7e09c255ef9f
gd1981-05-01d3t01.flac:4fee5384289a9ed1d04b3b9d45b37c78
gd1981-05-01d3t02.flac:d53c74128b6b4477a41e80dca5988f23
gd1981-05-01d3t03.flac:6dd041d84234d5cda76beecc5da8c615
gd1981-05-01d3t04.flac:5c105f9d067b3db8bcff7b1e8a884ebb
gd1981-05-01d3t05.flac:7599e2cfa22d76282d09867fcccc3019

095d04d9a22d57b1ea51b8a7e9d03fff *gd1981-05-01d1t05.flac
367bec60849656e5ba67c94fdc65ea56 *gd1981-05-01d1t06.flac
0388391e3c277a0f0024f1a8f0128014 *gd1981-05-01d1t07.flac
c3381319902c7c0803b6c709ab01ab35 *gd1981-05-01d1t08.flac
7e49a372f2501dd795b65a455a31a906 *gd1981-05-01d1t09.flac
216fe7cd5716a82a4c39764b1681c480 *gd1981-05-01d1t10.flac
67c7e9d2e2119d9bff85f571cc356512 *gd1981-05-01d1t01.flac
bdd1176cfd89a09483e20fb0224cec82 *gd1981-05-01d1t02.flac
5f82a47501a547285f0b3e14ca30586c *gd1981-05-01d1t03.flac
6b3743aab0543e978b5e202e9fdc36d8 *gd1981-05-01d1t04.flac
487b1e768c200aca26b3f3d127248397 *gd1981-05-01d2t04.flac
1964c2e0849d1d39448e75e05a8751bd *gd1981-05-01d2t05.flac
0e4bf1064580573511a14b963e3b99d9 *gd1981-05-01d2t06.flac
ec1e1b95dd9c9b7855f3758eb880cdcd *gd1981-05-01d2t07.flac
a4405f5c31914e30706abbc560ced801 *gd1981-05-01d2t01.flac
df4754f8aa15727ecc1ee3f7bbd32869 *gd1981-05-01d2t02.flac
a159903a401be5f3164389debe291c48 *gd1981-05-01d2t03.flac
0de414ee38985f21ba90e97e33adde90 *gd1981-05-01d3t04.flac
0afd80c595f48188f2ab167ab4806ddb *gd1981-05-01d3t05.flac
08d920008a103e701ec5143667272247 *gd1981-05-01d3t01.flac
6e6d575e60515d136dd8e11a0d5c1552 *gd1981-05-01d3t02.flac
481923ea595dccb5b88bba08901d9751 *gd1981-05-01d3t03.flac




More information about the bittorrent mailing list