[bittorrent] Widespread P anic * 1998-11-03 * Township Auditorium * Columbia, SC (akg 414)

Automated Mailer noreply-bt.e at etree.org
Fri Oct 26 21:25:56 MDT 2007


Band:           Widespread Panic
Torrent Name:   Widespread P anic * 1998-11-03 * Township Auditorium * Columbia, SC (akg 414)
Uploaded by:    wizardinthecorner
DB Link:        
Details:        http://bt.etree.org/details.php?id=510539

Contact the seeder at http://db.etree.org/wizardinthecorner

If the link to this show does not work, it was probably removed for
being non-trade-friendly.

Description / text file:
-------------------------
Widespread Panic
Township Auditorium
Columbia, SC
November 3, 1998

Source: AKG 414 > Denecke PS1 > sbm-1 @ 48 kHz
Taped by: Mike Phelps
Transfer: DAT (m) > Sony 59ES > Monster s/pdif > Audiophile 24/96 > Wave Lab 5.0 > CDWave > .flac (6)
Transfer by: BobbyHurley

Disc One / Set I

01  Tuning
02  Rebirtha
03  Contentment Blues  >
04  Who Do You Belong To?
05  Dying Man
06  Wondering  >
07  Aint Life Grand
08  Impossible Song  >
09  Gimme
10  Travelin' Light

Disc Two / Set II

01  Tuning
02  All Time Low
03  Pigeons
04  Tall Boy  >
05  She Caught the Katy
06  Papa's Home  >
07  Vacation  >
08  Drums  >

Disc 3 / Set II cont.

01  Papa's Home  >
02  Proving Ground  >
03  Cream Puff War  >
04  Proving Ground
05  Crowd
Encores
06  Pickin' Up the Pieces
07  Chilly Water 

============================

SHNtool Output

    length     expanded size   cdr  WAVE problems filename
     1:20.31       14184956    ---   --   -----   wsp1998-11-03d1t01.wav
    10:13.00      108133244    ---   --   -----   wsp1998-11-03d1t02.wav
     5:44.67       60839228    ---   --   -----   wsp1998-11-03d1t03.wav
     5:24.09       57174812    ---   --   -----   wsp1998-11-03d1t04.wav
     9:25.51       99785996    ---   --   -----   wsp1998-11-03d1t05.wav
     7:26.73       78846140    ---   --   -----   wsp1998-11-03d1t06.wav
     4:51.38       51421820    ---   --   -----   wsp1998-11-03d1t07.wav
     9:11.35       97278764    ---   --   -----   wsp1998-11-03d1t08.wav
     5:39.04       59809052    ---   --   -----   wsp1998-11-03d1t09.wav
     6:26.35       68172764    ---   --   -----   wsp1998-11-03d1t10.wav
     0:38.18        6745580    ---   --   -----   wsp1998-11-03d2t01.wav
     4:16.34       45238412    ---   --   -----   wsp1998-11-03d2t02.wav
     8:02.74       85198892    ---   --   -----   wsp1998-11-03d2t03.wav
     6:52.00       72676844    ---   --   -----   wsp1998-11-03d2t04.wav
     3:26.11       36364316    ---   --   -----   wsp1998-11-03d2t05.wav
    14:10.35      150022364    ---   --   -----   wsp1998-11-03d2t06.wav
    12:37.60      133675964    ---   --   -----   wsp1998-11-03d2t07.wav
    12:14.61      129621116    ---   --   -----   wsp1998-11-03d2t08.wav
     1:47.38       18964220    ---   --   -----   wsp1998-11-03d3t01.wav
     5:16.38       55831820    ---   --   -----   wsp1998-11-03d3t02.wav
     3:28.27       36754748    ---   --   -----   wsp1998-11-03d3t03.wav
     1:43.45       18275084    ---   --   -----   wsp1998-11-03d3t04.wav
     1:56.69       20624732    ---   --   -----   wsp1998-11-03d3t05.wav
     5:06.13       54009020    ---   --   -----   wsp1998-11-03d3t06.wav
     9:30.60      100689164    ---   --   -----   wsp1998-11-03d3t07.wav
   156:52.26        1583.42 MB                    (totals for 25 files, 1.0000 overall compression ratio)
    
============================

FLAC Fingerprint

wsp1998-11-03d1t01.flac:62c305623e4e8e299381ff7375db6b56
wsp1998-11-03d1t02.flac:9f8e88442f3f34b1fdfcaa838414664e
wsp1998-11-03d1t03.flac:c5c8505754a1398d8a333b904f91841f
wsp1998-11-03d1t04.flac:8ebf6425bd00e31d280b391a95d7507b
wsp1998-11-03d1t05.flac:61e8f2ca5ecc9e388e4d8596cfe2b5a0
wsp1998-11-03d1t06.flac:f75c8d74a6aaa46e6e14f0d8d2b342f4
wsp1998-11-03d1t07.flac:0bddaf8be7c1f10d6dc5098045ccf12f
wsp1998-11-03d1t08.flac:617ba051870b8f5196c07d73d3d91b4a
wsp1998-11-03d1t09.flac:9ba2c4f195b9291598252eb09ef2bea1
wsp1998-11-03d1t10.flac:12af46ecd5e51b0017a82b706a26c694
wsp1998-11-03d2t01.flac:8c6029e1dc6b6610a53f1285180be029
wsp1998-11-03d2t02.flac:faaf0f52e5c6fbd49fac54b78629d4f1
wsp1998-11-03d2t03.flac:553946dc619c649289bdf3f1a4262dd7
wsp1998-11-03d2t04.flac:ba7d228f5089f1e457666f4622e7eeec
wsp1998-11-03d2t05.flac:dafd4c82ac99fee67982316453949774
wsp1998-11-03d2t06.flac:51e340c635c2d1479624ac902dc04e92
wsp1998-11-03d2t07.flac:bf19a9e039f6621d49476614e8f8f5b5
wsp1998-11-03d2t08.flac:135d65f462225b7315b0b29d53332d9f
wsp1998-11-03d3t01.flac:265c1954d808ff7c001160de3f2776b8
wsp1998-11-03d3t02.flac:275546a988e6604add330bd3abb7e996
wsp1998-11-03d3t03.flac:1bea25edcb83005c93e7859d7d486ac3
wsp1998-11-03d3t04.flac:cfaed2f254ad598567a81d9fa9457239
wsp1998-11-03d3t05.flac:94f4340b5a2ffc094a383179738570fe
wsp1998-11-03d3t06.flac:1318c09b37fcce813e84cfe38b53fe93
wsp1998-11-03d3t07.flac:64053e1a19921cc5d0aba46aa5ece90f

============================

-= BobbyHurley 2007-10-26 =-



More information about the bittorrent mailing list