[bittorrent] rice+anger1999-11-05.akg391.unknown.sbeok.flac16

Automated Mailer noreply-bt.e at etree.org
Wed Oct 24 07:33:56 MDT 2007


Band:           Other
Torrent Name:   rice+anger1999-11-05.akg391.unknown.sbeok.flac16
Uploaded by:    WHARFRAT73
DB Link:        
Details:        http://bt.etree.org/details.php?id=510488

Contact the seeder at http://db.etree.org/WHARFRAT73

If the link to this show does not work, it was probably removed for
being non-trade-friendly.

Description / text file:
-------------------------
Mike Marshall, Todd Phillips, Tony Rice, Darol Anger
Catawba Valley Arts & Science Center
Hickory, NC
November 5, 1999 

Lineage:  AKG 391's(1st row Left stack)> Sony SBM1> Sony D7(master DAT 48 khz)>
Montego 11 Digital I/O> 44.1khz wav x1 

to FLAC March 17, 2006 by Bill Koucky

1st Set		45:12

01. Intro
02. Dysentary Stomp
03. Devlin
04. Scotch & Swing
05. E.M.D.
06. Two Fiddle Medley
07. Good Woman's Love
08. Fishscale 

2nd Set		55:11 

01. Intro
02. Swing 51
03. We Three
04. Daniel's Dream
05. Hot Nickels
06. Karate
07. Shenandoah
08. Key Signatur

09. E: Ride The Wild Turkey 


Note: Thanks to Alf Houck for sending Bill the discs and his friend Pete for
taping and the transfers

    length     expanded size   cdr  WAVE problems filename
     2:30.18       26502380    ---   --   ---xx   rice+anger-1999-11-05-akg391-d1t01.flac
     5:18.19       56139932    ---   --   ---xx   rice+anger-1999-11-05-akg391-d1t02.flac
     8:03.47       85311788    ---   --   ---xx   rice+anger-1999-11-05-akg391-d1t03.flac
     4:53.63       51833420    ---   --   ---xx   rice+anger-1999-11-05-akg391-d1t04.flac
     3:29.15       36902924    ---   --   ---xx   rice+anger-1999-11-05-akg391-d1t05.flac
     8:04.54       85504652    ---   --   ---xx   rice+anger-1999-11-05-akg391-d1t06.flac
     4:46.06       50464556    ---   --   ---xx   rice+anger-1999-11-05-akg391-d1t07.flac
     8:06.05       85742204    ---   --   ---xx   rice+anger-1999-11-05-akg391-d1t08.flac
     1:11.20       12571484    ---   --   ---xx   rice+anger-1999-11-05-akg391-d2t01.flac
     4:49.19       51024332    ---   --   ---xx   rice+anger-1999-11-05-akg391-d2t02.flac
     7:32.64       79883372    ---   --   ---xx   rice+anger-1999-11-05-akg391-d2t03.flac
     7:50.48       83020940    ---   --   ---xx   rice+anger-1999-11-05-akg391-d2t04.flac
     7:04.50       74911244    ---   --   ---xx   rice+anger-1999-11-05-akg391-d2t05.flac
     4:42.47       49855388    ---   --   ---xx   rice+anger-1999-11-05-akg391-d2t06.flac
     8:35.53       90970700    ---   --   ---xx   rice+anger-1999-11-05-akg391-d2t07.flac
     8:39.37       91638668    ---   --   ---xx   rice+anger-1999-11-05-akg391-d2t08.flac
     4:44.37       50184668    ---   --   ---xx   rice+anger-1999-11-05-akg391-d2t09.flac
   100:23.02        1013.24 MB                    (totals for 17 files, 0.4377 overall compression ratio)

rice+anger-1999-11-05-akg391-d1t01.flac:c7ef2047b36b2b2455e6de0f51f8e2dd
rice+anger-1999-11-05-akg391-d1t02.flac:f377620f8688efe880b5f26ca776e52c
rice+anger-1999-11-05-akg391-d1t03.flac:dae5263a310995ff407d091731991a96
rice+anger-1999-11-05-akg391-d1t04.flac:0c6a0d84cf75d5bf2f9b9bd96488756b
rice+anger-1999-11-05-akg391-d1t05.flac:29602f97a177fca0b7259835e8e8f375
rice+anger-1999-11-05-akg391-d1t06.flac:effc5c73bf64dc9d869596747a738b00
rice+anger-1999-11-05-akg391-d1t07.flac:766becfb5072366def5104791162f049
rice+anger-1999-11-05-akg391-d1t08.flac:3ddfd7fd4f5b09e8b3f2b1b8766b5bde
rice+anger-1999-11-05-akg391-d2t01.flac:b7ccd9722834e95b1318c8e6d674cf32
rice+anger-1999-11-05-akg391-d2t02.flac:fd6420e15701ced15337294b62a6b994
rice+anger-1999-11-05-akg391-d2t03.flac:e7464b875e0f6897054fd119640d2395
rice+anger-1999-11-05-akg391-d2t04.flac:67547cfcfb916efa1748462034dc3b73
rice+anger-1999-11-05-akg391-d2t05.flac:01d7f5a169193a667d01f58c2c56d367
rice+anger-1999-11-05-akg391-d2t06.flac:47109056958ce408f086339811a59c8f
rice+anger-1999-11-05-akg391-d2t07.flac:e3e364b7db44dcf6c5eba396f1ace201
rice+anger-1999-11-05-akg391-d2t08.flac:718f45e168a8392f737e01e78b9806de
rice+anger-1999-11-05-akg391-d2t09.flac:f40a7a17c63a695e4be6f5e98192d128

51f578cc8e0f1bf30fa98f9d1701e25b *rice+anger-1999-11-05-akg391-d1t01.flac
d5c64c339d5762b8e1621ff5da14c225 *rice+anger-1999-11-05-akg391-d1t02.flac
320ee2f5d535cce7794f74cd6a95a9b6 *rice+anger-1999-11-05-akg391-d1t03.flac
ae3c060eac82e7486e53f5aea0a051df *rice+anger-1999-11-05-akg391-d1t04.flac
efa6d61beecd68ee78ab9bf848dca321 *rice+anger-1999-11-05-akg391-d1t05.flac
55a538d71d06dbf74cf8b346db9db524 *rice+anger-1999-11-05-akg391-d1t06.flac
596a5ada193637adee8b147d80b37ed2 *rice+anger-1999-11-05-akg391-d1t07.flac
a35a652679c0d3aeae7b69f9fa92e749 *rice+anger-1999-11-05-akg391-d1t08.flac
a708010256327d3254a7d96bcd1139f2 *rice+anger-1999-11-05-akg391-d2t01.flac
87b5a1ebb92a54a7864400b566a5dc48 *rice+anger-1999-11-05-akg391-d2t02.flac
38ee57f91560cf2ffc386b63438bbd7b *rice+anger-1999-11-05-akg391-d2t03.flac
d87c2f52febcb1c50bb4ed72638980ba *rice+anger-1999-11-05-akg391-d2t04.flac
8794700b5664b0d5940af8055ac0b288 *rice+anger-1999-11-05-akg391-d2t05.flac
c615f64fb6f14ce5e9599f15918beb54 *rice+anger-1999-11-05-akg391-d2t06.flac
83f0dd7c3a5c0645bd1d8b3000208aaa *rice+anger-1999-11-05-akg391-d2t07.flac
56bd9fbf3b46c7502059a508b0f4fa2c *rice+anger-1999-11-05-akg391-d2t08.flac
d36c52402ff8f4b61a32e7c5ffb47cdc *rice+anger-1999-11-05-akg391-d2t09.flac




More information about the bittorrent mailing list