[bittorrent] Widespread Panic * 1998-03-27 * Paris, France (mg210)

Automated Mailer noreply-bt.e at etree.org
Tue Oct 23 17:44:53 MDT 2007


Band:           Widespread Panic
Torrent Name:   Widespread Panic * 1998-03-27 * Paris, France (mg210)
Uploaded by:    wizardinthecorner
DB Link:        
Details:        http://bt.etree.org/details.php?id=510475

Contact the seeder at http://db.etree.org/wizardinthecorner

If the link to this show does not work, it was probably removed for
being non-trade-friendly.

Description / text file:
-------------------------
Widespread Panic
March 27, 1998
Chesterfield Cafe
Paris, France

Source:  Microtech Gefell m210 > Oade m248 > SBM-1 > Sony D100 @ 44.1 KHz (fob)
Taped by:  Mike Schoder (DAT clone supplied courtesy of JJ Clifton) 
Transfer:  DAT (c) > Sony 59ES > Audiophile 24/96 > Wavelab 5.0 > CDWave > FLAC v.1.7.1 > .flac (6)
Transfer by:  BobbyHurley

Disc One
01  Let's Get Down to Business
02  Glory
02  Wonderin' >
04  Help Me Somebody
05  Disco >
06  Hatfield
07  Pickin' Up the Pieces
08  Stop-Go >
09  Junior >

Disc Two
01  That Thang >
02  Drums
03  Don't Be Denied
04  Walkin' (for your love) >
05  Love Tractor
06  Sunny & Dave
-= Encore =-
07  Henry Parsons Died
08  Travelin' Light

============================

SHNtool Output

    length     expanded size   cdr  WAVE problems filename
     7:18.73       77434940    ---   --   -----   wsp1998-03-27d1t01.wav
     3:57.43       41907980    ---   --   -----   wsp1998-03-27d1t02.wav
     8:17.72       87840188    ---   --   -----   wsp1998-03-27d1t03.wav
     6:26.39       68182172    ---   --   -----   wsp1998-03-27d1t04.wav
     8:37.29       91267052    ---   --   -----   wsp1998-03-27d1t05.wav
    10:59.13      116278220    ---   --   -----   wsp1998-03-27d1t06.wav
     5:27.46       57791036    ---   --   -----   wsp1998-03-27d1t07.wav
    13:03.12      138149468    ---   --   -----   wsp1998-03-27d1t08.wav
    10:38.14      112576172    ---   --   -----   wsp1998-03-27d1t09.wav
     9:01.56       95564156    ---   --   -----   wsp1998-03-27d2t01.wav
    11:14.34      118973612    ---   --   -----   wsp1998-03-27d2t02.wav
     6:53.50       72970844    ---   --   -----   wsp1998-03-27d2t03.wav
     7:56.07       83982908    ---   --   -----   wsp1998-03-27d2t04.wav
     6:38.11       70233116    ---   --   -----   wsp1998-03-27d2t05.wav
     3:09.45       33445484    ---   --   -----   wsp1998-03-27d2t06.wav
     5:47.27       61274348    ---   --   -----   wsp1998-03-27d2t07.wav
     7:44.20       81896684    ---   --   -----   wsp1998-03-27d2t08.wav
   133:11.66        1344.46 MB                    (totals for 17 files, 1.0000 overall compression ratio)
    
============================

FLAC Fingerprint

wsp1998-03-27d1t01.flac:de3c9e063c21019ab75dc4982b45d739
wsp1998-03-27d1t02.flac:ad29d38238779c8a11148eebe98c4555
wsp1998-03-27d1t03.flac:bb729a8b1fac56d17c9d437b1290a97b
wsp1998-03-27d1t04.flac:57fafcb44610e55bf884dbc22b6c8b42
wsp1998-03-27d1t05.flac:143a0b84d29149d63af8fc381ab492bc
wsp1998-03-27d1t06.flac:f6a11ac806bf817b6864329987864cc9
wsp1998-03-27d1t07.flac:cb99d3427fc9a0afc84fd4f7332a0e46
wsp1998-03-27d1t08.flac:552f2e572640d3ed85d88f1a58cf9454
wsp1998-03-27d1t09.flac:6b43e2f9627665fc64cf6fe0181a2197
wsp1998-03-27d2t01.flac:a91982efd01abd18bc55b5cccae3772d
wsp1998-03-27d2t02.flac:cb8a6af0278566c31c481812fffb4b74
wsp1998-03-27d2t03.flac:035cf3c6e22aaba1df6d1c800cf93a9b
wsp1998-03-27d2t04.flac:4100c35366bfbebc04928efb9b3e8949
wsp1998-03-27d2t05.flac:de310680889fb402383c008652e8698e
wsp1998-03-27d2t06.flac:0ec2cac9f6de6585059778f6c332ca32
wsp1998-03-27d2t07.flac:6833dcc2b3ea5db5c4c25510944e2d25
wsp1998-03-27d2t08.flac:39f8e3cc6ffaa11d96cbbb2cc30a397e

============================

-= BobbyHurley 2005-07-12 =-



More information about the bittorrent mailing list