[bittorrent] gd90-04-01.sbd.miller.87809.sbeok.flac16

Automated Mailer noreply-bt.e at etree.org
Tue Oct 23 14:31:30 MDT 2007


Band:           Grateful Dead
Torrent Name:   gd90-04-01.sbd.miller.87809.sbeok.flac16
Uploaded by:    tigerbolt
DB Link:        http://db.etree.org/lookup_show.php?shows_key=1908
Details:        http://bt.etree.org/details.php?id=510474

Contact the seeder at http://db.etree.org/tigerbolt

If the link to this show does not work, it was probably removed for
being non-trade-friendly.

Description / text file:
-------------------------
Grateful Dead - April 1, 1990
The Omni - Atlanta, GA

Recording Info:
SBD -> Dat -> Cassette Master (TDK MA-R90)

Transfer Info:
Cassette Master (Nakamichi DR-1) -> Apogee MiniMe (24bit/48k) ->
Samplitude Professional v9.11 -> FLAC/16
(2 Discs Audio / 2 Discs FLAC)

All Transfers And Mastering By Charlie Miller
charliemiller87 at earthlink.net
October 22, 2007

Notes:
-- Disc change is seamless
-- This is from a custom live recording mix by John Cutler
-- Thanks to Steve Marcus for the tapes

Set 1:
d1t01 - Touch Of Grey ->
d1t02 - Walkin' Blues
d1t03 - Just A Little Light
d1t04 - Candyman
d1t05 - Me And My Uncle ->
d1t06 - Big River
d1t07 - Althea
d1t08 - Victim Or The Crime ->
d1t09 - To Lay Me Down ->
d1t10 - The Music Never Stopped

Set 2:
d1t11 - China Cat Sunflower ->
d1t12 - I Know You Rider
d2t01 - Ship Of Fools ->
d2t02 - Man Smart, Woman Smarter ->
d2t03 - Drums ->
d2t04 - Space ->
d2t05 - Dear Mr. Fantasy ->
d2t06 - Hey Jude ->
d2t07 - Truckin' ->
d2t08 - Stella Blue ->
d2t09 - Sugar Magnolia

Encore:
d2t10 - It's All Over Now, Baby Blue


SHNTOOL OUTPUT:
    length     expanded size   cdr  WAVE problems filename
     6:28.37       68530268    ---   --   -----   gd90-04-01d1t01.wav
     6:23.65       67714124    ---   --   -----   gd90-04-01d1t02.wav
     5:26.09       57527612    ---   --   -----   gd90-04-01d1t03.wav
     7:07.11       75348716    ---   --   -----   gd90-04-01d1t04.wav
     3:06.70       32975084    ---   --   -----   gd90-04-01d1t05.wav
     5:11.42       54959228    ---   --   -----   gd90-04-01d1t06.wav
     7:46.71       82369436    ---   --   -----   gd90-04-01d1t07.wav
     9:52.07      104445308    ---   --   -----   gd90-04-01d1t08.wav
     9:29.37      100458668    ---   --   -----   gd90-04-01d1t09.wav
     7:59.17       84535628    ---   --   -----   gd90-04-01d1t10.wav
     5:30.02       58216748    ---   --   -----   gd90-04-01d1t11.wav
     4:53.08       51704060    ---   --   -----   gd90-04-01d1t12.wav
     7:52.55       83390204    ---   --   -----   gd90-04-01d2t01.wav
     7:51.25       83143244    ---   --   -----   gd90-04-01d2t02.wav
     7:25.64       78648572    ---   --   -----   gd90-04-01d2t03.wav
    11:45.52      124484348    ---   --   -----   gd90-04-01d2t04.wav
     5:47.49       61326092    ---   --   -----   gd90-04-01d2t05.wav
     2:38.39       27962972    ---   --   -----   gd90-04-01d2t06.wav
     6:55.34       73286012    ---   --   -----   gd90-04-01d2t07.wav
    10:33.33      111738860    ---   --   -----   gd90-04-01d2t08.wav
    11:10.03      118195100    ---   --   -----   gd90-04-01d2t09.wav
     7:49.35       82813964    ---   --   -----   gd90-04-01d2t10.wav
   159:05.15     1683774248 B                     (totals for 22 files)



gd84-04-01d1t01.flac:53d530ab08cf72dc35e73cab42f8eb5b
gd84-04-01d1t02.flac:c82ae16cb3ca3a04fa4fce6ab976d72a
gd84-04-01d1t03.flac:060157a6195fc23576b4dccba0d882c5
gd84-04-01d1t04.flac:e4ca2c4c565f5255754f4944a65a9b04
gd84-04-01d1t05.flac:5b7012a853fe40421361e20e2bcb7848
gd84-04-01d1t06.flac:cb1d97dfc2c54a2fbf948ad085eb5034
gd84-04-01d1t07.flac:5b5dd0eac06f0447823a661ea30d5e48
gd84-04-01d1t08.flac:6f7210853a4b784bca5afd0caf07379f
gd84-04-01d1t09.flac:1dca6c998edf983a7b91b4c30d4123ce
gd84-04-01d1t10.flac:2a9cdda51430eaa49544520bbc1df556
gd84-04-01d2t01.flac:97bf588aaaaa7ed19e94fc3ae98b062a
gd84-04-01d2t02.flac:64453a972990f570a1f1595c5cd34fa7
gd84-04-01d2t03.flac:c55667a82b941ec9bc60831b3c4dfa84
gd84-04-01d2t04.flac:b7ee1d84beb26d9d30f7c0e97aee3d13
gd84-04-01d2t05.flac:5602218be620b702cc6bffbddebbf51c
gd84-04-01d3t01.flac:63aa8dc1d13ae2f27dc197622acf0d70
gd84-04-01d3t02.flac:7699651453f5d5ce2b8d430c126b657f
gd84-04-01d3t03.flac:ddd50a624feec3b11d754ef5948ca9ef
gd84-04-01d3t04.flac:623bba4b2c6f99b7443d948bfbb859cc
gd84-04-01d3t05.flac:656c3eafb1812323dcf9d099f27018ae
gd84-04-01d3t06.flac:ec481c2f6436dadef49de44a872d8317
gd84-04-01d3t07.flac:bb113f3ac04bb0cd4d24d72fcb8bc5d6
gd84-04-01d3t08.flac:a2afcf5ff85bd20d6904eae338f38065
gd84-04-01d3t09.flac:1f2856e7656b5b1d3a5d510ab72df912


4cfa48e196c6a66875eb317564568546 *gd84-04-01d1t01.flac
bd81fddbda27149f86e48de7a853c945 *gd84-04-01d1t02.flac
eaeeebda191a74fafb19aa5d634ed7b8 *gd84-04-01d1t03.flac
302aad3d806b1d2583e8fb770131ca89 *gd84-04-01d1t04.flac
1dcd1a3d62a605b76d0f5589dc9d0f22 *gd84-04-01d1t05.flac
ca2a8a62457f971b0370fbd26e8d789a *gd84-04-01d1t06.flac
9ce176e3a2046aa3c364b3c5fa0896f7 *gd84-04-01d1t07.flac
ee48348dcf562914cd4a9760d5057d9f *gd84-04-01d1t08.flac
7a39b7d3015771c386c4d77a486742ec *gd84-04-01d1t09.flac
ed19f6a33f1e9402c534600d4605055b *gd84-04-01d1t10.flac
927c2b375493574265f9baee08e2471b *gd84-04-01d2t01.flac
12d5d500427f47fa75faf5cf1d881597 *gd84-04-01d2t02.flac
5a0d4385746332d0609f2a56a47842ce *gd84-04-01d2t03.flac
e303f9da151044be1eb696a0c428ae0f *gd84-04-01d2t04.flac
51c352d84ea099203c0631f2293c29dc *gd84-04-01d2t05.flac
849cf5f1da3d6ceeb3170cd298940024 *gd84-04-01d3t01.flac
6a478af3777386c17e11639eba45e9f9 *gd84-04-01d3t02.flac
c17f05a6f62791665a3e3b2b0f9ec940 *gd84-04-01d3t03.flac
32fbb1a6cd16ff5f8c49cff1ddd68f8a *gd84-04-01d3t04.flac
33b9589445f64201cb6d200e876b96b5 *gd84-04-01d3t05.flac
b0d20ef70af804ce2d34989bc8eb257b *gd84-04-01d3t06.flac
a47fdbc9d8a39413debb2140ad5fa7f4 *gd84-04-01d3t07.flac
64600679accaee058767c8445c41fda7 *gd84-04-01d3t08.flac
3123f29ffc05a8a389037de37dff1608 *gd84-04-01d3t09.flac




More information about the bittorrent mailing list