[bittorrent] gd1985-07-14.nakCM301.suraci.79026.sbeok.flac16

Automated Mailer noreply-bt.e at etree.org
Mon Oct 22 12:04:46 MDT 2007


Band:           Grateful Dead
Torrent Name:   gd1985-07-14.nakCM301.suraci.79026.sbeok.flac16
Uploaded by:    WHARFRAT73
DB Link:        http://db.etree.org/shn/79026
Details:        http://bt.etree.org/details.php?id=510451

Contact the seeder at http://db.etree.org/WHARFRAT73

If the link to this show does not work, it was probably removed for
being non-trade-friendly.

Description / text file:
-------------------------
Grateful Dead
Ventura County Fairgrounds
Ventura, California
July 14, 1985

Source: Nakamichi CM301's(split)>Sony D5M
Location: Directly behind SBD, one stand at each corner at 10 ft.
Transfer: Sony D5pro>Lunatec V3>722 at 24/96
Editing: 722>Adobe Aud. 2.0>16 Bit>Cdwav>flac
Taped, transfered and uploaded by Tony S./nak700

Disc one/set One:
Crowd/Intro
Hell in a Bucket
They Love Each Other
My Brother Esau
Althea
Cassidy
Big Railroad Blues
Looks Like Rain
Might as Well

Disc two/Set two:
Crowd/Intro
China Cat
I Know You Rider
Samson and Delilah
Ship of Fools
Estimated Prophet
//Eyes of the World
Drums

Disc Three/Set two Cont.:
//Drums
Space
Truckin'
Smokestack Lightning
Black Peter
Throwing Stones
NFA
E: Day Job

// a couple strange tape flips.

Notes: This is the 16bit version. 24bit is archived on DVDa.

    length     expanded size   cdr  WAVE problems filename
     0:44.29        7829852    ---   --   ---xx   gd1985-07-14d1t01.flac
     7:50.70       83072684    ---   --   ---xx   gd1985-07-14d1t02.flac
     8:42.62       92226668    ---   --   ---xx   gd1985-07-14d1t03.flac
     4:58.66       52722476    ---   --   ---xx   gd1985-07-14d1t04.flac
     8:44.01       92435996    ---   --   ---xx   gd1985-07-14d1t05.flac
     6:06.34       64642412    ---   --   ---xx   gd1985-07-14d1t06.flac
     4:35.43       48611180    ---   --   ---xx   gd1985-07-14d1t07.flac
     8:34.74       90843692    ---   --   ---xx   gd1985-07-14d1t08.flac
     4:25.52       46868348    ---   --   ---xx   gd1985-07-14d1t09.flac
     0:55.64        9852572    ---   --   ---xx   gd1985-07-14d2t01.flac
     5:57.54       63101852    ---   --   ---xx   gd1985-07-14d2t02.flac
     5:25.70       57494684    ---   --   ---xx   gd1985-07-14d2t03.flac
     7:56.49       84081692    ---   --   ---xx   gd1985-07-14d2t04.flac
     7:38.70       80955884    ---   --   ---xx   gd1985-07-14d2t05.flac
    10:38.32      112618508    ---   --   ---xx   gd1985-07-14d2t06.flac
     9:23.63       99461420    ---   --   ---xx   gd1985-07-14d2t07.flac
     2:37.41       27791276    ---   --   ---xx   gd1985-07-14d2t08.flac
     8:30.48       90076940    ---   --   ---xx   gd1985-07-14d3t01.flac
     7:05.58       75106460    ---   --   ---xx   gd1985-07-14d3t02.flac
     6:27.02       68271548    ---   --   ---xx   gd1985-07-14d3t03.flac
     4:16.49       45273692    ---   --   ---xx   gd1985-07-14d3t04.flac
     7:44.07       81866108    ---   --   ---xx   gd1985-07-14d3t05.flac
     9:14.03       97732700    ---   --   ---xx   gd1985-07-14d3t06.flac
     6:08.63       65063420    ---   --   ---xx   gd1985-07-14d3t07.flac
     4:39.15       49250924    ---   --   ---xx   gd1985-07-14d3t08.flac
   159:24.69        1609.09 MB                    (totals for 25 files, 0.5418 overall compression ratio)

gd1985-07-14d1t01.flac:9fbb09c62412ff904efc56f5ed1af2f6
gd1985-07-14d1t02.flac:06835eb41f93d463dc2f2ee49aba626c
gd1985-07-14d1t03.flac:036857f1a72624961608127424b23811
gd1985-07-14d1t04.flac:607853653b75bba579d8ffc59a9c416a
gd1985-07-14d1t05.flac:04e859aa1f568a273afbfccaf2057063
gd1985-07-14d1t06.flac:85a36b76cbede9543f54c54282918521
gd1985-07-14d1t07.flac:a4a2fbb590322d74096dbff567697e8a
gd1985-07-14d1t08.flac:86e6e69d7dbf16c6754be292189dd481
gd1985-07-14d1t09.flac:ea3a9845d0137a885ddec090a1a55935
gd1985-07-14d2t01.flac:749b8db9e7e14cf2a745e552567a8cd0
gd1985-07-14d2t02.flac:85c0c93d4fd00936c090a19fe9214a39
gd1985-07-14d2t03.flac:d8fcf9c29912d29ac8e0e6e0efeda537
gd1985-07-14d2t04.flac:f2c2c2f23995db62c1a29ac9a3288263
gd1985-07-14d2t05.flac:7dd4a8c6d1c31fbccc54c90899eb2f7b
gd1985-07-14d2t06.flac:146f5817c225c106452d15427bcbb38b
gd1985-07-14d2t07.flac:474c83c026c1dba4b5572637f73e8d84
gd1985-07-14d2t08.flac:2688c8d78cc62b18a63f4bca09ec9130
gd1985-07-14d3t01.flac:ef2fad1f204dd3ab3752adeb5c2f50a3
gd1985-07-14d3t02.flac:4a7d25dbb9cbe624875ef9dcd435a92a
gd1985-07-14d3t03.flac:cf6390bae3cfcfa21e37e2904a1498e8
gd1985-07-14d3t04.flac:e4dbe4b0be59fa0ca02307acc05a3b6a
gd1985-07-14d3t05.flac:5d638a4bd3b6c7a3bc41a1ee6ccfd83e
gd1985-07-14d3t06.flac:8e091c96bc662a48d7bd0f396a2ab94d
gd1985-07-14d3t07.flac:67e9fec1272a4aa31b44ce41240d9399
gd1985-07-14d3t08.flac:16d3342bc9e96674ec29d0ee111c9c66

7a0adabcc4a650e84dbf4414c9e7df31 *gd1985-07-14d1t01.flac
7ca014da8350bba51a04a3b32101d187 *gd1985-07-14d1t02.flac
d8bf82537f19d6a2b32d993b8115cfa2 *gd1985-07-14d1t03.flac
f773aa39fabf9b41c0e1ac06b7f92dd2 *gd1985-07-14d1t04.flac
c360f0e0e864213da8a96ccfc2d58ae4 *gd1985-07-14d1t05.flac
e6d87ffc128e41a6ceea61d5123e871a *gd1985-07-14d1t06.flac
4e47e484f96f91262af780085dad51a7 *gd1985-07-14d1t07.flac
45527157ea1b99570d9f750399368b7e *gd1985-07-14d1t08.flac
ac99acd07389ed80d2bba64673513909 *gd1985-07-14d1t09.flac
8c31aa3ff464e99d531bcd3d1fdf261c *gd1985-07-14d2t01.flac
16d0dd760a91c9d51b329d57c12d1d56 *gd1985-07-14d2t02.flac
d3843c9a30275264e19e2a58c16a1c4c *gd1985-07-14d2t03.flac
634b0bd848ee400b95cc787d524788ef *gd1985-07-14d2t04.flac
07f94379e242f8dafd5503955df797cb *gd1985-07-14d2t05.flac
e04b444b27f233510314542f0e46d3f6 *gd1985-07-14d2t06.flac
9690ca2a2bd4f053d9933cbf115aa2ca *gd1985-07-14d2t07.flac
b4131b9addc97171d9d503d9bb7afc98 *gd1985-07-14d2t08.flac
356350336ee53e685c3d58f4abf66ab9 *gd1985-07-14d3t01.flac
d01ac7daa6d0a6662eb64ac0d05047b9 *gd1985-07-14d3t02.flac
3324af67ea76c0e5cb20a896fb34f4ed *gd1985-07-14d3t03.flac
b7b6ba097f0dd6a645782c2ab2d196d6 *gd1985-07-14d3t04.flac
ea5bb9f3a2dc536996596a893715c4b9 *gd1985-07-14d3t05.flac
a000340668b8d34728b8962e83c4a2d5 *gd1985-07-14d3t06.flac
92408916ee4af76502f33582f9c17a34 *gd1985-07-14d3t07.flac
b29f9576ffc09dcefcc621d4bf85076c *gd1985-07-14d3t08.flac




More information about the bittorrent mailing list