[bittorrent] Galactic--Electric Factory--Philly--7/27/01--Ian Stone MBHO

Automated Mailer noreply-bt.e at etree.org
Fri Oct 19 09:41:05 MDT 2007


Band:           Galactic
Torrent Name:   Galactic--Electric Factory--Philly--7/27/01--Ian Stone MBHO
Uploaded by:    chrisdavis
DB Link:        http://db.etree.org/lookup_show.php?shows_key=70635
Details:        http://bt.etree.org/details.php?id=510362

Contact the seeder at http://db.etree.org/chrisdavis

If the link to this show does not work, it was probably removed for
being non-trade-friendly.

Description / text file:
-------------------------
Galactic
Electric Factory
Philadelphia, Pa
July 27, 2001

source:  MBHO 603/KA200 -> Sound Devices MP-2 -> AD2K -> DA-P1
taper:  Ian Stone

transfer:  dat (m) -> Tascam DA-20mkII -> Acoustic Research coax -> Audiophile 24/96 -> Wavelab 5.0 (record, 48>44.1) -> CD Wave -> FLAC(6)
transfer: Chris Davis (10/19/07)

Disc 1:     (78:29)
Set 1:
01.  (5:56)   Charlie Dozen
02.  (7:14)   Pocket Full of Sap
03.  (7:43)   Royal Exchange
04.  (5:53)   Ice Cold Daydream
05.  (4:12)   Century City
06.  (4:31)   I Can't Recall
07.  (6:00)   Hamps Hump
08.  (7:38)   Buck it Like a Horse
09.  (3:19)   Bobski 2000 -> 
10.  (4:25)   Villified
11.  (5:03)   Won't Wash Out
12.  (10:38)  2 Clowns

Set 2:
13.  (5:57)   Blackeyed Pea

Disc 2:     (78:57)
Set 2 (cont):
01.  (14:33)  Snowball
02.  (9:35)   Groove Holmes*
03.  (5:02)   Something's Wrong
04.  (3:56)   Something You Do to Me
05.  (4:40)   Sweetleaf
06.  (4:04)   Shucktime
07.  (5:46)   Lumpology
08.  (9:27)   Chicken Pox
09.  (14:37)  1-2-3-4

Encore:
10.  (7:17)   Africa

*with G. Love on harmonica/vocals

gal2001-07-27d1t01.flac:cd2374e9da581893182b1850742ccd95
gal2001-07-27d1t02.flac:3e11b87c4554eed174a8a89a435a1e87
gal2001-07-27d1t03.flac:9d3255eb79018ddc189cff0cb014ef04
gal2001-07-27d1t04.flac:9bb298bbc164f812c56b7223b07b6c02
gal2001-07-27d1t05.flac:1a8669f1cf17a502e830e054769ce034
gal2001-07-27d1t06.flac:83f2ed6dce020c9798df50598f3deda8
gal2001-07-27d1t07.flac:f2a881d479dd8e8f5d55670981756fd0
gal2001-07-27d1t08.flac:751e07224683f27248891d5710241983
gal2001-07-27d1t09.flac:cef3731e8ff416957f9262bc23b4c843
gal2001-07-27d1t10.flac:cd2a8ebca0c7f97200e943cf797cf7c9
gal2001-07-27d1t11.flac:334a714f4f97357788e9577b947b110b
gal2001-07-27d1t12.flac:3798a987451af66811c89c9236bb5930
gal2001-07-27d1t13.flac:12d884878ba0be54f44aba87f3767bc8
gal2001-07-27d2t01.flac:80cd8dcf015ff61023962eed0db137dd
gal2001-07-27d2t02.flac:d974ccb9ed8374734acb270e6ed6e8f6
gal2001-07-27d2t03.flac:f083b6f0bc5af65428779e9e017f54af
gal2001-07-27d2t04.flac:2fb35602ec3a9e729ff2dcdfddee9662
gal2001-07-27d2t05.flac:dcaab77987f7ce3a53722fde8b7f22bc
gal2001-07-27d2t06.flac:0cbd92f8cd4298dae3981bb89e961d43
gal2001-07-27d2t07.flac:a349a24f6b877804ad90dda34854abfc
gal2001-07-27d2t08.flac:5bb73e0630bc3381b02e7f630b34e3fd
gal2001-07-27d2t09.flac:f39c5d0fb3f50e7acff3ea9629f8ba4a
gal2001-07-27d2t10.flac:a04a355bca1278ac50f82fad0db3643f

    length     expanded size    cdr  WAVE problems  fmt   ratio  filename
     5:56.45       62904284 B   ---   --   -----    wav  1.0000  gal2001-07-27d1t01.wav
     7:14.18       76599980 B   ---   --   -----    wav  1.0000  gal2001-07-27d1t02.wav
     7:43.21       81722636 B   ---   --   -----    wav  1.0000  gal2001-07-27d1t03.wav
     5:53.72       62438588 B   ---   --   -----    wav  1.0000  gal2001-07-27d1t04.wav
     4:12.48       44565740 B   ---   --   -----    wav  1.0000  gal2001-07-27d1t05.wav
     4:31.38       47893820 B   ---   --   -----    wav  1.0000  gal2001-07-27d1t06.wav
     6:00.59       63642812 B   ---   --   -----    wav  1.0000  gal2001-07-27d1t07.wav
     7:38.26       80852396 B   ---   --   -----    wav  1.0000  gal2001-07-27d1t08.wav
     3:19.02       35108348 B   ---   --   -----    wav  1.0000  gal2001-07-27d1t09.wav
     4:25.03       46753100 B   ---   --   -----    wav  1.0000  gal2001-07-27d1t10.wav
     5:03.35       53531564 B   ---   --   -----    wav  1.0000  gal2001-07-27d1t11.wav
    10:38.16      112580876 B   ---   --   -----    wav  1.0000  gal2001-07-27d1t12.wav
     5:57.07       62991308 B   ---   --   -----    wav  1.0000  gal2001-07-27d1t13.wav
    14:33.00      153997244 B   ---   --   -----    wav  1.0000  gal2001-07-27d2t01.wav
     9:35.69      101592332 B   ---   --   -----    wav  1.0000  gal2001-07-27d2t02.wav
     5:02.68       53432780 B   ---   --   -----    wav  1.0000  gal2001-07-27d2t03.wav
     3:56.42       41729228 B   ---   --   -----    wav  1.0000  gal2001-07-27d2t04.wav
     4:40.06       49406156 B   ---   --   -----    wav  1.0000  gal2001-07-27d2t05.wav
     4:04.50       43159244 B   ---   --   -----    wav  1.0000  gal2001-07-27d2t06.wav
     5:46.69       61196732 B   ---   --   -----    wav  1.0000  gal2001-07-27d2t07.wav
     9:27.04      100028252 B   ---   --   -----    wav  1.0000  gal2001-07-27d2t08.wav
    14:37.09      154724012 B   ---   --   -----    wav  1.0000  gal2001-07-27d2t09.wav
     7:17.22       77138588 B   ---   --   -----    wav  1.0000  gal2001-07-27d2t10.wav
   157:35.54     1667990020 B                            1.0000  (23 files)




More information about the bittorrent mailing list