[bittorrent] gd76-09-27.sbd.miller.87664 War Memorial Auditorium - Rochester, NY

Automated Mailer noreply-bt.e at etree.org
Fri Oct 19 05:04:08 MDT 2007


Band:           Grateful Dead
Torrent Name:   gd76-09-27.sbd.miller.87664 War Memorial Auditorium - Rochester, NY
Uploaded by:    Cranky1
DB Link:        http://db.etree.org/shn/87664
Details:        http://bt.etree.org/details.php?id=510353

Contact the seeder at http://db.etree.org/Cranky1

If the link to this show does not work, it was probably removed for
being non-trade-friendly.

Description / text file:
-------------------------
Grateful Dead - September 27, 1976
War Memorial Auditorium - Rochester, NY

Recording Info:
SBD -> Master Reel -> Dat (48k)

Transfer Info:
Dat (Sony R500) -> Behringer Ultramatch SRC2000 ->
Samplitude Professional v9.11 -> FLAC
(3 Discs Audio / 2 Discs FLAC)

All Transfers and Mastering By Charlie Miller
charliemiller87 at earthlink.net
July 18, 2006

Patch Info:
Sony ECM-33P>Master Cassette>Dat>CD (shnid=3821) supplies:
Promised Land (0:00 - 0:09)
It's All Over Now (0:00 - 3:09)
Loser (3:52 - 4:39)
Slipknot! (6:02 - 6:27)
Around And Around (0:36 - 1:49)

Notes:
-- Set 2 is seamless
-- Patch source was pitch adjusted to match sbd
-- Fixed vocal distortion
-- El Paso has a false start
-- Supplication is instrumental
-- First few seconds of U.S. Blues missing

Set 1:
d1t01 - The Promised Land
d1t02 - They Love Each Other
d1t03 - El Paso
d1t04 - Deal
d1t05 - Looks Like Rain
d1t06 - Row Jimmy
d1t07 - It's All Over Now
d1t08 - Loser
d1t09 - Lazy Lightnin' ->
d1t10 - Supplication
d1t11 - Brown Eyed Women
d1t12 - The Music Never Stopped

Set 2:
d2t01 - Might As Well
d2t02 - Samson And Delilah
d2t03 - Help On The Way ->
d2t04 - Slipknot! ->
d2t05 - Drums ->
d3t01 - The Other One ->
d3t02 - Wharf Rat ->
d3t03 - Slipknot! ->
d3t04 - Franklin's Tower ->
d3t05 - Around And Around

Encore:
d3t06 - U.S. Blues


SHNTOOL OUTPUT:
    length     expanded size   cdr  WAVE problems filename
     4:56.73       52386140    ---   --   -----   gd76-09-27d1t01.wav
     7:29.22       79255388    ---   --   -----   gd76-09-27d1t02.wav
     4:50.28       51221900    ---   --   -----   gd76-09-27d1t03.wav
     4:54.14       51894572    ---   --   -----   gd76-09-27d1t04.wav
     8:31.35       90222764    ---   --   -----   gd76-09-27d1t05.wav
    10:07.44      107178332    ---   --   -----   gd76-09-27d1t06.wav
     5:51.03       61923500    ---   --   -----   gd76-09-27d1t07.wav
     7:56.48       84079340    ---   --   -----   gd76-09-27d1t08.wav
     2:44.55       29059004    ---   --   -----   gd76-09-27d1t09.wav
     5:30.36       58296716    ---   --   -----   gd76-09-27d1t10.wav
     4:58.08       52586060    ---   --   -----   gd76-09-27d1t11.wav
     6:24.07       67754108    ---   --   -----   gd76-09-27d1t12.wav
     6:09.06       65105756    ---   --   -----   gd76-09-27d2t01.wav
     6:55.22       73257788    ---   --   -----   gd76-09-27d2t02.wav
     5:49.57       61697708    ---   --   -----   gd76-09-27d2t03.wav
     6:56.50       73500044    ---   --   -----   gd76-09-27d2t04.wav
     5:55.47       62732588    ---   --   -----   gd76-09-27d2t05.wav
    10:05.06      106736156    ---   --   -----   gd76-09-27d3t01.wav
    10:54.24      115422092    ---   --   -----   gd76-09-27d3t02.wav
     2:33.10       27012764    ---   --   -----   gd76-09-27d3t03.wav
    17:49.71      188738636    ---   --   -----   gd76-09-27d3t04.wav
     7:18.45       77369084    ---   --   -----   gd76-09-27d3t05.wav
     5:40.00       59976044    ---   --   -----   gd76-09-27d3t06.wav
   160:22.36     1697406484 B                     (totals for 23 files)

bee40a02a55d89d545f2b5005ae919f2 *gd76-09-27d1t01.flac
43db5d9c18a7c2d1102207adb136920f *gd76-09-27d1t02.flac
0eb1262e2f35cba9ceffc9cfa129ed4e *gd76-09-27d1t03.flac
a19a9a9bc701e5cf070b97cdc32b60ae *gd76-09-27d1t04.flac
594f23c5bc53e410b3ccb36bf16730c7 *gd76-09-27d1t05.flac
d9027ab186076511e6b6fde51f600c07 *gd76-09-27d1t06.flac
8a47e7469ff6d337c2e6c4397f5f10fc *gd76-09-27d1t07.flac
9bfc7181fb7a7f1ba07b10b2e8500dc7 *gd76-09-27d1t08.flac
9a2e56f3046cb960a4a72d1765c5fb55 *gd76-09-27d1t09.flac
9ec56c44ad92a13e9c727d976575ccb7 *gd76-09-27d1t10.flac
d0a254fa29d8c05e9cec652773ae0ea0 *gd76-09-27d1t11.flac
31e09ece6e38122e5a06670858b2b54d *gd76-09-27d1t12.flac
d4806cb9b99035221e512c04715c3a6f *gd76-09-27d2t01.flac
fc38b137d0318dfd70ed26575aa06af7 *gd76-09-27d2t02.flac
c2ed4dd980a29deec03362e900dfa947 *gd76-09-27d2t03.flac
dfbc477f72736ff73433407f39bc4181 *gd76-09-27d2t04.flac
828c6698c0488b56084e8754b4024868 *gd76-09-27d2t05.flac
fae626ba39553d2e633aaf770589c715 *gd76-09-27d3t01.flac
e747a6eec28ae5f7b39901bececfc5ff *gd76-09-27d3t02.flac
402ed1329ca5ba72925ad4adb2adbfb0 *gd76-09-27d3t03.flac
f71e6bd5cc1be29facdb1b89daf734cc *gd76-09-27d3t04.flac
d31f89335c4ffadcbfa821249a72ca5f *gd76-09-27d3t05.flac
5f114e422b6301d2e442412b625ffd6f *gd76-09-27d3t06.flac




More information about the bittorrent mailing list