[bittorrent] gd91-03-25.sbd.miller.87731.sbeok.flac16 -new seed-

Automated Mailer noreply-bt.e at etree.org
Thu Oct 18 18:02:16 MDT 2007


Band:           Grateful Dead
Torrent Name:   gd91-03-25.sbd.miller.87731.sbeok.flac16 -new seed-
Uploaded by:    drivesmetodrink
DB Link:        http://db.etree.org/shninfo_detail.php?shnid=87731
Details:        http://bt.etree.org/details.php?id=510342

Contact the seeder at http://db.etree.org/drivesmetodrink

If the link to this show does not work, it was probably removed for
being non-trade-friendly.

Description / text file:
-------------------------
Grateful Dead - March 25, 1991
Knickerbocker Arena - Albany, NY

Recording Info:
SBD -> Dat -> Cassette Master (TDK SA-X100)

Transfer Info:
Cassette Master (Nakamichi DR-1) -> Sound Devices 744T (24bit/48k) ->
Samplitude Professional v9.11 -> FLAC/16
(3 Discs Audio / 2 Discs FLAC)

All Transfers and Mastering By Charlie Miller
charliemiller87 at earthlink.net
October 17, 2007

Patch Info:
Nakamichi 300/CP4 -> Dat -> Sound Forge -> CD (shnid=84645) supplies:
It's All Over Now (0:00 - 0:09)
Space (6:31 - 6:54)

Notes:
-- Set 2 is seamless
-- Jam out of Spoonful sounds like Nobody's Fault meets Russian Lullaby
-- Playing In The Band was started 2 nights earlier

Set 1:
d1t01 - Shakedown Street
d1t02 - Little Red Rooster
d1t03 - Stagger Lee
d1t04 - Queen Jane Approximately
d1t05 - High Time
d1t06 - It's All Over Now
d1t07 - Tennessee Jed
d1t08 - The Promised Land ->
d1t09 - Touch Of Grey

Set 2:
d2t01 - Tuning
d2t02 - Greatest Story Ever Told ->
d2t03 - Crazy Fingers ->
d2t04 - Truckin' ->
d2t05 - Spoonful ->
d2t06 - Drums ->
d3t01 - Space ->
d3t02 - The Other One ->
d3t03 - Black Peter ->
d3t04 - Throwing Stones ->
d3t05 - Playing In The Band (Reprise)

Encore:
d3t06 - Turn On Your Lovelight


SHNTOOL OUTPUT:
    length    expanded size  cdr  WAVE problems filename
    16:10.37      171195068    ---  --  -----  gd91-03-25d1t01.wav
    10:13.23      108187340    ---  --  -----  gd91-03-25d1t02.wav
    7:23.29      78213452    ---  --  -----  gd91-03-25d1t03.wav
    7:34.56      80217356    ---  --  -----  gd91-03-25d1t04.wav
    7:13.12      76409468    ---  --  -----  gd91-03-25d1t05.wav
    8:19.17      88063628    ---  --  -----  gd91-03-25d1t06.wav
    8:30.12      89992268    ---  --  -----  gd91-03-25d1t07.wav
    4:38.67      49196828    ---  --  -----  gd91-03-25d1t08.wav
    6:23.12      67589468    ---  --  -----  gd91-03-25d1t09.wav
    0:57.45      10160684    ---  --  -----  gd91-03-25d2t01.wav
    4:06.45      43500284    ---  --  -----  gd91-03-25d2t02.wav
    8:37.44      91302332    ---  --  -----  gd91-03-25d2t03.wav
    7:52.29      83329052    ---  --  -----  gd91-03-25d2t04.wav
    12:18.72      130352588    ---  --  -----  gd91-03-25d2t05.wav
    11:55.38      126215420    ---  --  -----  gd91-03-25d2t06.wav
    10:04.45      106651484    ---  --  -----  gd91-03-25d3t01.wav
    12:03.31      127610156    ---  --  -----  gd91-03-25d3t02.wav
    8:48.21      93188636    ---  --  -----  gd91-03-25d3t03.wav
    8:01.22      84900188    ---  --  -----  gd91-03-25d3t04.wav
    5:02.17      53312828    ---  --  -----  gd91-03-25d3t05.wav
    7:19.48      77552540    ---  --  -----  gd91-03-25d3t06.wav
  173:34.47    1837141068 B                    (totals for 21 files)

FFP
gd91-03-25d1t01.flac:117d40bd37206daeac859a383138f9a7
gd91-03-25d1t02.flac:0133712327953d3fb03dec88182a1764
gd91-03-25d1t03.flac:d7a56f1fe65c66aafa35d36c55f03247
gd91-03-25d1t04.flac:307a0849b1a245c163a0eaa37859942d
gd91-03-25d1t05.flac:df2157f4b954f2390af7f4a7d0f206df
gd91-03-25d1t06.flac:153268036a27271fef7df54cd768601a
gd91-03-25d1t07.flac:f0dbd1c20ca968b8a7aa93e910018604
gd91-03-25d1t08.flac:169edf5f8fab0f75a7d8e79c664a2eaa
gd91-03-25d1t09.flac:6aad6c04fc2c0e4c1a39b112f3bf9e31
gd91-03-25d2t01.flac:778313e31dfe8239398154cab99b07b3
gd91-03-25d2t02.flac:edc56fa77224d45edbf3034913710076
gd91-03-25d2t03.flac:48c1b049824d0dbe49e2f6866ecc7ef9
gd91-03-25d2t04.flac:7f423d750c61003eec29df9e6b283679
gd91-03-25d2t05.flac:4413bf962ebb28898b58a17ea8529ce6
gd91-03-25d2t06.flac:ae51b8cbe046fe743a8ba62ef4aeff3a
gd91-03-25d3t01.flac:02621c00e174164143ebc79f88f4ce61
gd91-03-25d3t02.flac:c36290a54139fa6cf223db81fcbac3a2
gd91-03-25d3t03.flac:c148d72ef75c49f7a6a9a122d25b6d37
gd91-03-25d3t04.flac:81eb38bedb94cdf11530dde8396b185f
gd91-03-25d3t05.flac:737bec6e45df5ff3551c8fca120e45c4
gd91-03-25d3t06.flac:e6d4ca4a6dff787c2277195d1440bb82

MD5
6c64d7a49af42c11c205111044aef59b *gd91-03-25d1t01.flac
52698cb1959d91d9698ce779fa44fc2e *gd91-03-25d1t02.flac
c65f9320ef9705e3780aa7727107595c *gd91-03-25d1t03.flac
a4269f5199a6134f2cafe14b80bef5ca *gd91-03-25d1t04.flac
ef6b970eabc4a0e0a68844b11e915420 *gd91-03-25d1t05.flac
9e910e9b9cc2f3cbc8b0a5a3d73a855f *gd91-03-25d1t06.flac
f78d4a786f384b4e6afaa88e72802310 *gd91-03-25d1t07.flac
9767357ad284c7a5b2f5f57d563e4f68 *gd91-03-25d1t08.flac
8a53a7e0f3e46f8fe6b6515d3e89aad4 *gd91-03-25d1t09.flac
d99fc2bee601946bab98a6357f681879 *gd91-03-25d2t01.flac
3050c3a0ed1b9b9ae6808c2da45c3fbf *gd91-03-25d2t02.flac
a73c57beaa6e08ccc6a510c3f7ce16d9 *gd91-03-25d2t03.flac
74a1ffe26d286831ee09d9aebd9fbf1b *gd91-03-25d2t04.flac
d6bfe93b2d1c949e093fa00a62688037 *gd91-03-25d2t05.flac
47b38d09b7e3ce565a75ad62f5622d50 *gd91-03-25d2t06.flac
78287248d620c63041e0e7750a36c2d0 *gd91-03-25d3t01.flac
bd04cc2f3d775816b68e175c405c138a *gd91-03-25d3t02.flac
70653ddbca4c55e093bc6e09b9af9a49 *gd91-03-25d3t03.flac
8419d37be21c6c5920eb345ce8ef84e0 *gd91-03-25d3t04.flac
615224d2f5fac1dacd53e6ba19259129 *gd91-03-25d3t05.flac
cc2e5da5f7ac395f4f8651449b23adc6 *gd91-03-25d3t06.flac 





More information about the bittorrent mailing list