[bittorrent] Phish November 27, 1992 Port Chester, NY

Automated Mailer noreply-bt.e at etree.org
Wed Oct 17 12:36:52 MDT 2007


Band:           Phish
Torrent Name:   Phish November 27, 1992 Port Chester, NY
Uploaded by:    nate frawg
DB Link:        http://db.etree.org/shninfo_detail.php?shnid=85791
Details:        http://bt.etree.org/details.php?id=510314

Contact the seeder at http://db.etree.org/nate frawg

If the link to this show does not work, it was probably removed for
being non-trade-friendly.

Description / text file:
-------------------------
Phish
November 27, 1992
Capitol Theatre
Port Chester, NY

source:
(FOB) Sennheiser 421 > Panasonic SV-255 (@ 48 kHz)
(spread to aisle)

transfer:
Tascam DA-20MKII > Tascam HD-P2 > CF card > usb 2.0 > pc > WaveLab 5.01b (fades, patch) > r8brain v1.9 (resample to 44.1 kHz) > CD Wave v1.95.1 > FLAC v1.1.4 (Level 8)

FLAC tags added with metaflac v1.1.4

recorded by Joe LeClair
transferred by Jason Sobel (jasonsobel at gmail.com)
seeded June 12, 2007

notes:
the 48kHz files from the DAT transfer have been archived, and are available upon request.
Big thanks to Dave Flaschner for letting me borrow his DATs!

Disc 1 - [61:38]
Set I
01 - [06:24] - Rift >
02 - [06:10] - Wilson >
03 - [16:45] - The Divided Sky >
04 - [13:05] - Colonel Forbin's Ascent >
05 - [06:41] - The Famous Mockingbird
06 - [10:02] - Split Open and Melt
07 - [02:31] - Lawn Boy

Disc 2 - [50:17]
Set I continued
01 - [12:26] - Reba
02 - [04:25] - Llama
03 - [07:03] - Mound
04 - [00:55] - Memories
05 - [07:27] - Runaway Jim
Set II
06 - [04:32] - Axilla
07 - [02:50] - Poor Heart >
08 - [10:39] - Possum

Disc 3 - [69:15]
Set II continued
01 - [04:31] - Glide >
02 - [07:54] - It's Ice >
03 - [08:44] - McGrupp and the Watchful Hosemasters >
04 - [02:59] - I Walk The Line ->
05 - [14:13] - David Bowie
06 - [01:40] - The Horse >
07 - [06:35] - Silent in the Morning
08 - [05:29] - Faht
09 - [04:51] - Take the A Train >
10 - [05:01] - Cavern
11 - [01:46] - encore break
12 - [05:24] - Bold As Love

show notes:
Possum included All Fall Down and Random Note Signals
Faht was dedicated to Jimi Hendrix on his birthday

recording/patch notes:
the music on the DAT started right at the beginning of "Rift".
The levels in "Rift" start out just a bit too hot, but they are adjusted ~25 seconds into the song.
The volume of shouting/cheering immediately after "Memories" was lowered to make it more listenable.
There was a drop-out during "Runaway Jim".
This drop-out was present on the DAT copy, and the missing music was patched in with the following source:
Neumann RSM190i > Neumann matrix box > Panasonic SV-255
The Neumann source was used from [05:42] to [06:01]

---------------------------------------------------------------------------------------------------

SHNtool output

    length     expanded size   cdr  WAVE problems filename
     6:24.37       67824668    ---   --   ---xx   ph1992-11-27d1t01.flac
     6:09.49       65206892    ---   --   ---xx   ph1992-11-27d1t02.flac
    16:45.02      177286748    ---   --   ---xx   ph1992-11-27d1t03.flac
    13:05.14      138506972    ---   --   ---xx   ph1992-11-27d1t04.flac
     6:40.55       70689404    ---   --   ---xx   ph1992-11-27d1t05.flac
    10:02.21      106242236    ---   --   ---xx   ph1992-11-27d1t06.flac
     2:30.51       26579996    ---   --   ---xx   ph1992-11-27d1t07.flac
    12:25.69      131580332    ---   --   ---xx   ph1992-11-27d2t01.flac
     4:24.45       46675484    ---   --   ---xx   ph1992-11-27d2t02.flac
     7:02.65       74593724    ---   --   ---xx   ph1992-11-27d2t03.flac
     0:55.15        9737324    ---   --   ---xx   ph1992-11-27d2t04.flac
     7:27.29       78919052    ---   --   ---xx   ph1992-11-27d2t05.flac
     4:32.08       47999660    ---   --   ---xx   ph1992-11-27d2t06.flac
     2:49.52       29933948    ---   --   ---xx   ph1992-11-27d2t07.flac
    10:39.11      112745516    ---   --   ---xx   ph1992-11-27d2t08.flac
     4:39.11       49241516    ---   --   ---xx   ph1992-11-27d3t01.flac
     7:53.67       83594828    ---   --   ---xx   ph1992-11-27d3t02.flac
     8:44.22       92485388    ---   --   ---xx   ph1992-11-27d3t03.flac
     2:59.14       31608572    ---   --   ---xx   ph1992-11-27d3t04.flac
    14:13.07      150485708    ---   --   ---xx   ph1992-11-27d3t05.flac
     1:40.02       17644748    ---   --   ---xx   ph1992-11-27d3t06.flac
     6:34.62       69647468    ---   --   ---xx   ph1992-11-27d3t07.flac
     5:28.40       57953324    ---   --   ---xx   ph1992-11-27d3t08.flac
     4:51.00       51332444    ---   --   ---xx   ph1992-11-27d3t09.flac
     5:01.37       53183468    ---   --   ---xx   ph1992-11-27d3t10.flac
     1:45.38       18611420    ---   --   ---xx   ph1992-11-27d3t11.flac
     5:24.04       57163052    ---   --   ---xx   ph1992-11-27d3t12.flac
   181:10.02     1917473892 B                     (totals for 27 files, 0.5423 overall compression ratio)

ph1992-11-27d1t01.flac:bc430e099c8ae75481f595c49729dc59
ph1992-11-27d1t02.flac:39d02697d9dc9c4aee64d8bd8b9ebafa
ph1992-11-27d1t03.flac:69e6aef85d8595dd40e5101b5644a3d1
ph1992-11-27d1t04.flac:363853bff4bc39c9e5642f7052c7e805
ph1992-11-27d1t05.flac:378017b7e5d8cb786f821e70dad6a60f
ph1992-11-27d1t06.flac:87fa161cc7e801ef1ab45da079152036
ph1992-11-27d1t07.flac:a9b4c68c4ea16d5ba183933eda96ffcb
ph1992-11-27d2t01.flac:97c0ec515bb942898624292e041f9609
ph1992-11-27d2t02.flac:2f19da3aadadac5b3bf587435fd8a07c
ph1992-11-27d2t03.flac:13b6c05121360c781afd298492d01718
ph1992-11-27d2t04.flac:7e2377715ad2ae36fd1008d35fb4c21e
ph1992-11-27d2t05.flac:cbd018a30295083626aa91ab3e129802
ph1992-11-27d2t06.flac:9736291045af231fd0b609934fa62596
ph1992-11-27d2t07.flac:63c271fcd7a8cc72b94dfaa970503797
ph1992-11-27d2t08.flac:9edafeb6c709a6b8764c8bc2c751b198
ph1992-11-27d3t01.flac:739b84362e00c197e3fd0eea4d8f59e3
ph1992-11-27d3t02.flac:09a024caad8b47f2cdf7807017595564
ph1992-11-27d3t03.flac:d9eb55104bce2bca3ab6733f0ca8b613
ph1992-11-27d3t04.flac:a8f1be0284334caefd78735e62fdeee9
ph1992-11-27d3t05.flac:3691e7103e031150b9ab9e33bd9ea27e
ph1992-11-27d3t06.flac:22a3bd55c34796e4512d0728df04d959
ph1992-11-27d3t07.flac:f826976c384d3192358f45aceee7e706
ph1992-11-27d3t08.flac:6ae12aeda2cf6c3a9aec9a8f0c7650dc
ph1992-11-27d3t09.flac:1ca8760f5075ab8e4f8ee3d56c9e5f8b
ph1992-11-27d3t10.flac:b5598fb93f80f2d4ea8e118613f42fdf
ph1992-11-27d3t11.flac:05539dc04f20bda4418dd24859a7a535
ph1992-11-27d3t12.flac:f60c85e6fe27563f7d5fd47b925dc0ae
62e44a1042e75b78a4fa7700ff508e13 *ph1992-11-27d1t01.wav
cf06262343b458d13ba3f972e84b68f1 *ph1992-11-27d1t02.wav
f736f130a64d501695c4dea530432768 *ph1992-11-27d1t03.wav
7bc74932c45eb86f06e52400e7ff7ebc *ph1992-11-27d1t04.wav
de8ad2b30eae2cb0ebe0dadf9205406d *ph1992-11-27d1t05.wav
f784802e72fc2808a1a964c55b02700e *ph1992-11-27d1t06.wav
412ac97773a530b3949e2c001701b94a *ph1992-11-27d1t07.wav
673c94a18e168618e0001ba13d6db2ee *ph1992-11-27d2t01.wav
51a185548ea2fcedbe03d29ea2fcc684 *ph1992-11-27d2t02.wav
8c3cea227ca8595dc298867af62c6035 *ph1992-11-27d2t03.wav
2629910c32eebeec8c3ba4ecabb2202a *ph1992-11-27d2t04.wav
3b936f0aa0b95b9e55216d4779eea323 *ph1992-11-27d2t05.wav
f2486b340fc293db155921d046814ad0 *ph1992-11-27d2t06.wav
7dccda51b27fffa51ebe48b00de3d2b4 *ph1992-11-27d2t07.wav
8c5992a908d0638ce4e7b5c3620bc419 *ph1992-11-27d2t08.wav
b26c6f0c06172fd01fb1dbe44f638807 *ph1992-11-27d3t01.wav
f38b6ca35d1d6a188ab1c516d4e88b6e *ph1992-11-27d3t02.wav
f8d911f5e9d145343442796996a4a510 *ph1992-11-27d3t03.wav
c70280a65a7613d45e8c2c2084b5df6e *ph1992-11-27d3t04.wav
765511012f40001d744342806f1a6787 *ph1992-11-27d3t05.wav
42569e2f7b3c4451baae630c22e3b48e *ph1992-11-27d3t06.wav
151403c560f78748b6e5847f79f821c1 *ph1992-11-27d3t07.wav
88cfd374715564691c6e0eb3b6910d71 *ph1992-11-27d3t08.wav
5045de418fe87cbf7d56574ee9b6d077 *ph1992-11-27d3t09.wav
34cd13307394e942a576c89bb8bca84c *ph1992-11-27d3t10.wav
36fa075db31a4f18e4a8ab6d99985b9c *ph1992-11-27d3t11.wav
72b3126b9aafdfc2a8d4ec02587cf222 *ph1992-11-27d3t12.wav




More information about the bittorrent mailing list