[bittorrent] Bob Weir Band--Civic Center Theater--St. Paul, MN--2/23/78--Aud (EAC)

Automated Mailer noreply-bt.e at etree.org
Tue Oct 16 17:30:32 MDT 2007


Band:           Ratdog
Torrent Name:   Bob Weir Band--Civic Center Theater--St. Paul, MN--2/23/78--Aud (EAC)
Uploaded by:    chrisdavis
DB Link:        http://db.etree.org/lookup_show.php?shows_key=177055
Details:        http://bt.etree.org/details.php?id=510294

Contact the seeder at http://db.etree.org/chrisdavis

If the link to this show does not work, it was probably removed for
being non-trade-friendly.

Description / text file:
-------------------------
Bob Weir Band
Civic Center Theater
St. Paul, MN
February 23, 1978

source:  Audience (Unknown taper/equipment) -> ? -> CD -> EAC (secure, w/ logs) -> FLAC (6)

CD provided by Robin Bock (Zowie)
CD -> FLAC by Chris Davis (10/16/07)

One Set:   (73:39)

01.  (5:12)   C.C. Ryder*
02.  (5:04)   Minglewood
03.  (4:29)   Easy to Slip
04.  (5:06)   Salt Lake City
05.  (4:27)   Poison Ivy
06.  (7:05)   Bombs Away
07.  (5:33)   I Found Love
08.  (4:27)   All Over Now
09.  (4:25)   This Time Forever ->
10.  (4:50)   Shade of Gray
11.  (6:23)   Heaven Help the Fool
12.  (5:46)   Around and Around

Encore:
13.  (5:00)   Ill be Doggone ->
14.  (5:52)   Wrong Way Feeling

*track cuts in, very early.
-Tape pauses in between songs resulting in abrupt transitions.

Bob Weir band:
Bob Weir
Bobby Cochran
Brent Mydland
Rich Carlos
John Mauer

bwb1978-02-23t01.flac:12121cd0f4e0752254cfe93f3fef23cb
bwb1978-02-23t02.flac:7d3100516c38224088ca89ab0426444b
bwb1978-02-23t03.flac:eccd93a84c806384d7e1dd2ae1fa15b0
bwb1978-02-23t04.flac:aa8cf3c34e949f357e3d4e2bf174b6a4
bwb1978-02-23t05.flac:a7091c17a276e886550cd078f7467411
bwb1978-02-23t06.flac:8ed8fc59c50eb7bac4b61c0654967d9b
bwb1978-02-23t07.flac:34031863fb93f06e887506d4e6a1a862
bwb1978-02-23t08.flac:25ec7204bb5349799be8fdbb213e7f55
bwb1978-02-23t09.flac:2a71ac8e9957e1f3ce8d6e1df40a0f7e
bwb1978-02-23t10.flac:27c0326df361c0dbfcf884d2abbc6100
bwb1978-02-23t11.flac:0158c8c1c1a41fdd6a2ec4ede436e114
bwb1978-02-23t12.flac:f5c275cb31fc6042720883995218aa37
bwb1978-02-23t13.flac:fa28f75d9e7c825302bcaebdfb259eb7
bwb1978-02-23t14.flac:dea3165ddb54b3ab9d3e4cd3f7e8c64a

   length     expanded size    cdr  WAVE problems  fmt   ratio  filename
     5:12.65       55189724 B   ---   --   -----    wav  1.0000  bwb1978-02-23t01.wav
     5:04.71       53792636 B   ---   --   -----    wav  1.0000  bwb1978-02-23t02.wav
     4:29.29       47519852 B   ---   --   -----    wav  1.0000  bwb1978-02-23t03.wav
     5:06.45       54084284 B   ---   --   -----    wav  1.0000  bwb1978-02-23t04.wav
     4:27.31       47171756 B   ---   --   -----    wav  1.0000  bwb1978-02-23t05.wav
     7:05.24       75026492 B   ---   --   -----    wav  1.0000  bwb1978-02-23t06.wav
     5:33.07       58757708 B   ---   --   -----    wav  1.0000  bwb1978-02-23t07.wav
     4:27.23       47152940 B   ---   --   -----    wav  1.0000  bwb1978-02-23t08.wav
     4:25.57       46880108 B   ---   --   -----    wav  1.0000  bwb1978-02-23t09.wav
     4:50.55       51285404 B   ---   --   -----    wav  1.0000  bwb1978-02-23t10.wav
     6:23.66       67716476 B   ---   --   -----    wav  1.0000  bwb1978-02-23t11.wav
     5:46.71       61201436 B   ---   --   -----    wav  1.0000  bwb1978-02-23t12.wav
     5:00.61       53063516 B   ---   --   -----    wav  1.0000  bwb1978-02-23t13.wav
     5:52.05       62104604 B   ---   --   -----    wav  1.0000  bwb1978-02-23t14.wav
    73:47.10      780946936 B                            1.0000  (14 files)




More information about the bittorrent mailing list