[bittorrent] Tea Leaf Green - 2007-10-13 - Echo Project, Fairburn, GA (Neumann 4 mic mix)

Automated Mailer noreply-bt.e at etree.org
Sun Oct 14 20:36:14 MDT 2007


Band:           Tea Leaf Green
Torrent Name:   Tea Leaf Green - 2007-10-13 - Echo Project, Fairburn, GA (Neumann 4 mic mix)
Uploaded by:    pilgrims622
DB Link:        
Details:        http://bt.etree.org/details.php?id=510255

Contact the seeder at http://db.etree.org/pilgrims622

If the link to this show does not work, it was probably removed for
being non-trade-friendly.

Description / text file:
-------------------------
Tea Leaf Green
Echo Project, Eclipse Stage
Fairburn, GA
October 13, 2007

Source: [Neumann ak20(Blumlein) > lc3 > km100(mic in)] + [Neumann ak40(DIN) > lc3 > km100 > Lunatec V3(analog out)] > Sound Devices 744t @ 24/48
Location: fob, dfc, 7' stand
Transfer: 744t > Firewire > WaveLab 5.01a > CDWave > FLAC(level 6)

Dithered/Resampled(16/44.1), Mixed(4 channels), & Fades Added in WaveLab
Tracked in CDWave

Taped, Transferred, & Seeded by D.P. Swint 

Disc 1
01. Sex in the 70's >
02. Red Ribbons
03. Franz Hanzerbeak >
04. One Reason >
05. The Devil's Pay >
06. Make a Connection >
07. Georgie P >
08. The Garden (Part III)
09. If It Wasn't for the Money

['This Land is Your Land' jam during 'Sex in the 70's']

********************************************************
FLAC Fingerprints

tlg2007-10-13d1t01.flac:9bc429945da5b0098ee6f8b0fbaede40
tlg2007-10-13d1t02.flac:3f8d34809025724c22834c230b3ad179
tlg2007-10-13d1t03.flac:db1a6848d9fdb9bf58da2817a12fd7ea
tlg2007-10-13d1t04.flac:5d02b8ec735b0016b338d93970acf02c
tlg2007-10-13d1t05.flac:6f308deb00b5ab52bbf0305492f43607
tlg2007-10-13d1t06.flac:4a1a067b18910c069906ce851a3ea862
tlg2007-10-13d1t07.flac:a910a1170eff5ff3aec508c277ad9685
tlg2007-10-13d1t08.flac:792b6745562b2299c32eb9e0687e9220
tlg2007-10-13d1t09.flac:899ec92884fd88bc3f4e2f325aa8c021

********************************************************
SHNtool Output

    length     expanded size   cdr  WAVE problems filename
     10:39.20      112766684    ---   --   ---xx   tlg2007-10-13d1t01.flac
      5:24.46       57261836    ---   --   ---xx   tlg2007-10-13d1t02.flac
      9:01.52       95554748    ---   --   ---xx   tlg2007-10-13d1t03.flac
      5:06.67       54136028    ---   --   ---xx   tlg2007-10-13d1t04.flac
      7:39.64       81118172    ---   --   ---xx   tlg2007-10-13d1t05.flac
      4:57.20       52437884    ---   --   ---xx   tlg2007-10-13d1t06.flac
      6:52.68       72836780    ---   --   ---xx   tlg2007-10-13d1t07.flac
      5:07.45       54260684    ---   --   ---xx   tlg2007-10-13d1t08.flac
      5:38.28       59689100    ---   --   ---xx   tlg2007-10-13d1t09.flac
     60:28.35      640061916 B                     (totals for 9 files, 0.6101 overall compression ratio)



More information about the bittorrent mailing list