[bittorrent] Strangefolk 1998-06-07 Hoodoo Bash Tour, Portland, ME

Automated Mailer noreply-bt.e at etree.org
Sun Oct 14 19:09:58 MDT 2007


Band:           Strangefolk
Torrent Name:   Strangefolk 1998-06-07  Hoodoo Bash Tour, Portland, ME
Uploaded by:    nhteamfocker
DB Link:        
Details:        http://bt.etree.org/details.php?id=510252

Contact the seeder at http://db.etree.org/nhteamfocker

If the link to this show does not work, it was probably removed for
being non-trade-friendly.

Description / text file:
-------------------------
Strangefolk
6/7/98
Hoodoo Bash Tour
State Theatre
Portland, ME


Source:

Unknown Aud

Conversion:

Tascam DA-20 MKII > Tascam HD-P2 (48.0) > Sony Soundforge 8.0 (44.1) >
CD Wave > Flac

Converted by:

Patrick Price
patrickprice at comcast.net


Setlist:

1.  Sweet Libation
2.  Pawn
3.  So Well
4.  Otis
5.  Neighbor
6.  Strange Ranger
7.  All the Same
8.  Take it Easy on Me
9.  Lines and Circles
10. Encore Break

Encore: 

11.  Get Down Tonight


Flac Fingerprint:

sf1998-06-07s1t01.flac:4ba78bdc7f0e3c47e5e599a9ef9f03c6
sf1998-06-07s1t02.flac:e0cb941be27b1d1c09c879a8c5a3f262
sf1998-06-07s1t03.flac:f6c1a356a74401bfd417604fe693c2ba
sf1998-06-07s1t04.flac:a436963a9321631ef397e31ad8135838
sf1998-06-07s1t05.flac:7f08ab7661f3ca8a64c3c79476941fa7
sf1998-06-07s1t06.flac:58b6e0941c4e3659152e3b88c2052c26
sf1998-06-07s1t07.flac:5eb03b22ce114dd99094a2021c0d5d4d
sf1998-06-07s1t08.flac:c8b8fa6b40d0cf3afcfb8fa56d66ecb6
sf1998-06-07s1t09.flac:7930bf767006dfa1dd1d050a7b87e55a
sf1998-06-07s1t10.flac:800e5750c1ee71840f106966292928cf
sf1998-06-07s1t11.flac:ceffe6261aefac24df94906d8129f4f6

Shntool Output:

    length     expanded size   cdr  WAVE problems filename
     5:57.05       62986604    ---   --   ---xx   sf1998-06-07s1t01.flac
     4:37.04       48872252    ---   --   ---xx   sf1998-06-07s1t02.flac
    15:42.00      166168844    ---   --   ---xx   sf1998-06-07s1t03.flac
     4:25.34       46826012    ---   --   ---xx   sf1998-06-07s1t04.flac
    14:35.54      154477052    ---   --   ---xx   sf1998-06-07s1t05.flac
     6:52.22       72728588    ---   --   ---xx   sf1998-06-07s1t06.flac
     4:19.24       45744092    ---   --   ---xx   sf1998-06-07s1t07.flac
    10:40.62      113041868    ---   --   ---xx   sf1998-06-07s1t08.flac
    20:15.20      214373084    ---   --   ---xx   sf1998-06-07s1t09.flac
     1:55.12       20314268    ---   --   ---xx   sf1998-06-07s1t10.flac
     4:14.71       44972636    ---   --   ---xx   sf1998-06-07s1t11.flac
    93:35.08         944.62 MB                    (totals for 11 files, 0.5316 overall compression ratio)




More information about the bittorrent mailing list