[bittorrent] Widespread Panic 1998-03-21 * Paris, France (km140)

Automated Mailer noreply-bt.e at etree.org
Sun Oct 14 17:11:18 MDT 2007


Band:           Widespread Panic
Torrent Name:   Widespread Panic 1998-03-21 * Paris, France (km140)
Uploaded by:    wizardinthecorner
DB Link:        
Details:        http://bt.etree.org/details.php?id=510248

Contact the seeder at http://db.etree.org/wizardinthecorner

If the link to this show does not work, it was probably removed for
being non-trade-friendly.

Description / text file:
-------------------------
Widespread Panic
March 21, 1998
Chesterfield Cafe
Paris, France

Source:  Neumann KM140 > Beyer MV100 > SBM-1 @ 44.1 KHz (fob)
Taped by:  Kurt Vile (DAT clone supplied courtesy of Steve Bohannon)

Transfer:  DAT (c) > Sony 59ES > Audiophile 24/96 > Wavelab 5.0 > CDWave > FLAC v.1.7.1 > .flac (6)
Transfer by:  BobbyHurley

Disc One
01  Intro Tuning
02  The Take Out  >
03  Travelin' Light
04  Barstools & Dreamers
05  Happy  >
06  Pusherman
07  Mercy  >
08  Henry Parsons Died

Disc Two
01  Tuning
02  Aunt Avis  >
03  Love Tractor  >
04  Drums  >
05  Porch Song *  >
06  Nobody's Fault But Mine
07  Conrad the Caterpillar
08  Crowd & Sunny
-= Encores =-
09  Goin' Out West
10  Dream Song

* - slow 'Porch Song'

==========================

SHNtool Output
    length     expanded size   cdr  WAVE problems filename
     0:36.56        6482156    ---   --   -----   wsp1998-03-21d1t01.wav
     2:27.11       25956716    ---   --   -----   wsp1998-03-21d1t02.wav
     6:28.23       68497340    ---   --   -----   wsp1998-03-21d1t03.wav
    12:25.26      131479196    ---   --   -----   wsp1998-03-21d1t04.wav
     9:23.59       99452012    ---   --   -----   wsp1998-03-21d1t05.wav
    14:35.10      154373564    ---   --   -----   wsp1998-03-21d1t06.wav
    10:25.68      110409980    ---   --   -----   wsp1998-03-21d1t07.wav
     9:11.64       97346972    ---   --   -----   wsp1998-03-21d1t08.wav
     0:48.00        8467244    ---   --   -----   wsp1998-03-21d2t01.wav
     7:27.10       78874364    ---   --   -----   wsp1998-03-21d2t02.wav
     6:30.26       68857196    ---   --   -----   wsp1998-03-21d2t03.wav
     9:03.40       95879324    ---   --   -----   wsp1998-03-21d2t04.wav
    13:41.58      144960860    ---   --   -----   wsp1998-03-21d2t05.wav
     9:06.47       96424988    ---   --   -----   wsp1998-03-21d2t06.wav
    10:05.56      106853756    ---   --   -----   wsp1998-03-21d2t07.wav
     2:26.26       25815596    ---   --   -----   wsp1998-03-21d2t08.wav
     6:22.64       67535372    ---   --   -----   wsp1998-03-21d2t09.wav
     6:12.49       65736092    ---   --   -----   wsp1998-03-21d2t10.wav
   137:19.18        1386.07 MB                    (totals for 18 files, 1.0000 overall compression ratio)

==========================

FLAC Fingerprint
wsp1998-03-21d1t01.flac:d227cac8cb236d5f72d5c020caa002f5
wsp1998-03-21d1t02.flac:16ff7053b481b976673eb6bb6fffa71d
wsp1998-03-21d1t03.flac:012fc61ff1b066d1192cf49ef50e4d0c
wsp1998-03-21d1t04.flac:9247d59e3630aaa64e76bd787f15db32
wsp1998-03-21d1t05.flac:f58b09fcbc138be05a6c94ab7d53ce91
wsp1998-03-21d1t06.flac:f2e62d8c5168adbfbbb4d1ddb86dd4ac
wsp1998-03-21d1t07.flac:d168e1f953e157e1d0b4de4d3a4e97c5
wsp1998-03-21d1t08.flac:95e5f381bdcabfa6649cdaf6922e3706
wsp1998-03-21d2t01.flac:a4a9e0fe42c8b673462bd15634afc75a
wsp1998-03-21d2t02.flac:0fb3810433815ca4bbc49319981a4185
wsp1998-03-21d2t03.flac:e7310fc41aa59a10d7114fbdacf8c298
wsp1998-03-21d2t04.flac:442dfbffd33426ea7f5fe027064aaa09
wsp1998-03-21d2t05.flac:cc7b38b61f071020b113e3e5731a4675
wsp1998-03-21d2t06.flac:4dcfadb51f18e55616fc83c4f0ef2c64
wsp1998-03-21d2t07.flac:ad5a7f6f256adaacd5875c646a050623
wsp1998-03-21d2t08.flac:44d9be7348212e815bf79fbc36b31b46
wsp1998-03-21d2t09.flac:6a4fb1a6520dcfa083f2b8171cf15d4a
wsp1998-03-21d2t10.flac:ae50288df2e2ac63c5e339464a79866d


-= BobbyHurley2005-06-13 =-



More information about the bittorrent mailing list