[bittorrent] Tinsley Ellis--Windjammer--Isle of Palms, SC--10/13/07--Peluso

Automated Mailer noreply-bt.e at etree.org
Sun Oct 14 12:01:42 MDT 2007


Band:           Other
Torrent Name:   Tinsley Ellis--Windjammer--Isle of Palms, SC--10/13/07--Peluso
Uploaded by:    chrisdavis
DB Link:        http://db.etree.org/lookup_show.php?shows_key=387547
Details:        http://bt.etree.org/details.php?id=510241

Contact the seeder at http://db.etree.org/chrisdavis

If the link to this show does not work, it was probably removed for
being non-trade-friendly.

Description / text file:
-------------------------
Tinsley Ellis
The Windjammer
Isle of Palms, SC
October 13, 2007 (Saturday)

source: Peluso CEMC6/CK4 -> BM2p+ UA-5 -> JB3
location: Clamped to ceiling beam / 15' off floor / 15' from stage / DFC
transfer: JB3 -> Nomad Explorer -> CD Wave Editor -> FLAC (6)

recorded by: Chris and Kelsie Davis and Col. George (ret.)

One Set:

Disc 1:      (71:09)
01.  (0:10)   intro
02.  (5:03)   Hell or High Water
03.  (3:45)   Love Bomb
04.  (7:44)   A Quitter Never Wins
05.  (4:31)   Devil for a Dime
06.  (5:54)   Come Morning
07.  (4:00)   Tell Her the Truth ->
08.  (11:55)  Youre Gonna Thank Me
09.  (6:08)   Get to the Bottom
10.  (8:01)   2 or 3
11.  (5:50)   Mercy, Mercy, Mercy
12.  (4:15)   Panhead ->
13.  (3:53)   Up on Cripple Creek (instrumental)

Disc 2:      (52:45)
01.  (12:05)  The Last Song
02.  (3:47)   Leavin' Here ->
03.  (9:57)   Pawnbroker
04.  (1:51)   band intros
05.  (5:30)   The Next Miss Wrong
06.  (8:25)   The Axe
07.  (11:10)  Double-Eyed Whammy

The Band:
Tinsley Ellis---------Guitar, Vocals
The Evil One----------Bass
Jeff "JB" Burch-------Drums
Mike Lowry------------Guitar

--Big thanks to the Windjammer staff for their hospitality.
--Thanks as always to Tinsley and the band for allowing audience taping.

te2007-10-13d1t01.flac:67df926eda89f71d07a63d9447f27184
te2007-10-13d1t02.flac:92b71596bb9024e1e91d66694c8546c7
te2007-10-13d1t03.flac:17d9878ea72e0673edef515b0047c3ee
te2007-10-13d1t04.flac:15402af765d60828f9a2b05b4066022e
te2007-10-13d1t05.flac:897343cf4543f3b87eafc3129da7d824
te2007-10-13d1t06.flac:0ba304a74af8e396bb1a4b1cb782f2b0
te2007-10-13d1t07.flac:9ae82aba1d201afb807b7711a0cd5199
te2007-10-13d1t08.flac:68efbfee053f64a4edf5a4cb2b5347ea
te2007-10-13d1t09.flac:7fd12ecb016dd879c1792237e2d917ea
te2007-10-13d1t10.flac:68dcf63a156aa1fd7655b9d2ebd6d243
te2007-10-13d1t11.flac:1c2488778cc711043f9eacbbc3be47b6
te2007-10-13d1t12.flac:011251b9a8c566d0fda19c1136c9405b
te2007-10-13d1t13.flac:5bdbf8f2d30813ebcd568f5e66a03880
te2007-10-13d2t01.flac:b4fc00fbec5d2fd4ab777d1d5c3d3afa
te2007-10-13d2t02.flac:2643afadc405f64c556225a7dfb92725
te2007-10-13d2t03.flac:868042be228f80754121d0bc1fc4b740
te2007-10-13d2t04.flac:d4cef62d08e7677e9fa88685fbd01b83
te2007-10-13d2t05.flac:ad8d15d293f3204543725ded24c6cdb1
te2007-10-13d2t06.flac:66ef6e729c1423df21213b47f94873f9
te2007-10-13d2t07.flac:73dfee8c390389b94ee0100fd2f1fdd3

    length     expanded size    cdr  WAVE problems  fmt   ratio  filename
     0:10.05        1775804 B   ---   --   -----    wav  1.0000  te2007-10-13d1t01.wav
     5:03.55       53578604 B   ---   --   -----    wav  1.0000  te2007-10-13d1t02.wav
     3:45.17       39730028 B   ---   --   -----    wav  1.0000  te2007-10-13d1t03.wav
     7:44.06       81863756 B   ---   --   -----    wav  1.0000  te2007-10-13d1t04.wav
     4:31.42       47903228 B   ---   --   -----    wav  1.0000  te2007-10-13d1t05.wav
     5:54.36       62530316 B   ---   --   -----    wav  1.0000  te2007-10-13d1t06.wav
     4:00.07       42352508 B   ---   --   -----    wav  1.0000  te2007-10-13d1t07.wav
    11:55.03      126133100 B   ---   --   -----    wav  1.0000  te2007-10-13d1t08.wav
     6:08.63       65063420 B   ---   --   -----    wav  1.0000  te2007-10-13d1t09.wav
     8:01.58       84984860 B   ---   --   -----    wav  1.0000  te2007-10-13d1t10.wav
     5:50.45       61845884 B   ---   --   -----    wav  1.0000  te2007-10-13d1t11.wav
     4:15.02       44986748 B   ---   --   -----    wav  1.0000  te2007-10-13d1t12.wav
     3:53.55       41230604 B   ---   --   -----    wav  1.0000  te2007-10-13d1t13.wav
    12:05.34      127970012 B   ---   --   -----    wav  1.0000  te2007-10-13d2t01.wav
     3:47.71       40209836 B   ---   --   -----    wav  1.0000  te2007-10-13d2t02.wav
     9:57.20      105357884 B   ---   --   -----    wav  1.0000  te2007-10-13d2t03.wav
     1:51.21       19629836 B   ---   --   -----    wav  1.0000  te2007-10-13d2t04.wav
     5:30.63       58360220 B   ---   --   -----    wav  1.0000  te2007-10-13d2t05.wav
     8:25.54       89209052 B   ---   --   -----    wav  1.0000  te2007-10-13d2t06.wav
    11:10.14      118220972 B   ---   --   -----    wav  1.0000  te2007-10-13d2t07.wav
   124:02.71     1312936672 B                            1.0000  (20 files)




More information about the bittorrent mailing list