[bittorrent] **sunday dead** vol. 5 - June 18, 1989 Shoreline Amphitheatre - Mountain View, CA [SBD CMiller Upgrade 83673] new to etree

Automated Mailer noreply-bt.e at etree.org
Sun Oct 14 11:59:23 MDT 2007


Band:           Grateful Dead
Torrent Name:   **sunday dead** vol. 5 - June 18, 1989 Shoreline Amphitheatre - Mountain View, CA [SBD CMiller Upgrade 83673] new to etree 
Uploaded by:    mayormarionbarry
DB Link:        http://db.etree.org/shninfo_detail.php?shnid=83673
Details:        http://bt.etree.org/details.php?id=510240

Contact the seeder at http://db.etree.org/mayormarionbarry

If the link to this show does not work, it was probably removed for
being non-trade-friendly.

Description / text file:
-------------------------
Grateful Dead - June 18, 1989
Shoreline Amphitheatre - Mountain View, CA

Recording Info:
SBD -> Dat (44.1k)

Transfer Info:
Dat (Sony R500) -> Samplitude Professional v9.02 -> FLAC
(3 Discs Audio / 2 Discs FLAC)

All Transfers and Mastering By Charlie Miller
charliemiller87 at earthlink.net
March 22, 2007

Notes:
-- 2nd Set is seamless

Set 1:
d1t01 - Tuning
d1t02 - Foolish Heart
d1t03 - Jack Straw
d1t04 - Alabama Getaway
d1t05 - Queen Jane Approximately
d1t06 - Cold Rain And Snow
d1t07 - Little Red Rooster
d1t08 - Hey Pocky Way ->
d1t09 - Iko Iko

Set 2:
d2t01 - Samson And Delilah ->
d2t02 - Cumberland Blues
d2t03 - Saint Of Circumstance ->
d2t04 - He's Gone ->
d2t05 - Drums ->
d3t01 - Space ->
d3t02 - The Wheel ->
d3t03 - I Need A Miracle ->
d3t04 - Stella Blue ->
d3t05 - Around And Around ->
d3t06 - Good Lovin'

Encore:
d3t07 -	U.S. Blues


SHNTOOL OUTPUT:
    length     expanded size   cdr  WAVE problems filename
     1:50.52       19526348    ---   --   -----   gd89-06-18d1t01.wav
     9:38.38      102048620    ---   --   -----   gd89-06-18d1t02.wav
     8:32.64       90467372    ---   --   -----   gd89-06-18d1t03.wav
     8:54.04       94207052    ---   --   -----   gd89-06-18d1t04.wav
     6:16.04       66335852    ---   --   -----   gd89-06-18d1t05.wav
     6:27.10       68290364    ---   --   -----   gd89-06-18d1t06.wav
     8:25.42       89180828    ---   --   -----   gd89-06-18d1t07.wav
     8:26.01       89260796    ---   --   -----   gd89-06-18d1t08.wav
     7:05.38       75059420    ---   --   -----   gd89-06-18d1t09.wav
     9:09.23       96897740    ---   --   -----   gd89-06-18d2t01.wav
     9:04.08       95980460    ---   --   -----   gd89-06-18d2t02.wav
     7:01.40       74358524    ---   --   -----   gd89-06-18d2t03.wav
    18:25.68      195081980    ---   --   -----   gd89-06-18d2t04.wav
    10:30.53      111256700    ---   --   -----   gd89-06-18d2t05.wav
    14:23.18      152275580    ---   --   -----   gd89-06-18d3t01.wav
     5:39.67       59957228    ---   --   -----   gd89-06-18d3t02.wav
     3:50.04       40581452    ---   --   -----   gd89-06-18d3t03.wav
     8:44.29       92501852    ---   --   -----   gd89-06-19d3t04.wav
     3:43.30       39407804    ---   --   -----   gd89-06-18d3t05.wav
    11:38.07      123143708    ---   --   -----   gd89-06-18d3t06.wav
     5:53.29       62337452    ---   --   -----   gd89-06-18d3t07.wav
   173:40.29     1838157132 B                     (totals for 21 files)

gd89-06-19d1t01.flac:1711e3946f306f94d5298f3d0738f014
gd89-06-19d1t02.flac:8459e45df2b1968e02f32e55890d5da2
gd89-06-19d1t03.flac:f5fdb51cd69b42b02c75e28877c236bb
gd89-06-19d1t04.flac:7146b68b3ea78c2b5d29c1c3ba4f102f
gd89-06-19d1t05.flac:14a71f7f6f91e064db381a436fab8843
gd89-06-19d1t06.flac:d68eb157fc3dc07efa7a40b93df3b277
gd89-06-19d1t07.flac:2da1890cb77f7567582f8930d2caa29c
gd89-06-19d1t08.flac:454abc5167b2d8c55475f20a2395df5c
gd89-06-19d1t09.flac:a584e21ffdcb27957cbae6119b8c954e
gd89-06-19d2t01.flac:6085e2b84309c51bc2908c26f68fe751
gd89-06-19d2t02.flac:c6524ae1ff90ff839656a08e56ecba0a
gd89-06-19d2t03.flac:af0d7caf44b4e1ef8a04ed3d67ddd982
gd89-06-19d2t04.flac:8ab75893322f841e6eb2e8e768d09ebf
gd89-06-19d2t05.flac:5b104e0551e611a32807fb56b7c70d77
gd89-06-19d2t06.flac:2fcfc2cd603f185e57bac9051c393665
gd89-06-19d2t07.flac:2a29c44c3b41a9eac0ed3c5ce9754a84
gd89-06-19d3t01.flac:eab2e48b142e80f445b18bd4ef18d5b9
gd89-06-19d3t02.flac:aea04ec83ff62babaf2a9e1e43960774
gd89-06-19d3t03.flac:c18785eebbb84df5f222b4af543b4659
gd89-06-19d3t04.flac:10d34fcf60d0647bd4fb76a50e1dc09d
gd89-06-19d3t05.flac:9f4e3bf7dee61b7afc13915b5c713d39
gd89-06-19d3t06.flac:d8f620208b4c8104cdb48c1b2559f79b
gd89-06-19d3t07.flac:6342d39bfc73134ad7395a4f0c84a0fd



More information about the bittorrent mailing list