[bittorrent] Eric McFadden Trio 2007-09-27 Uptown Lounge * Oakland, CA

Automated Mailer noreply-bt.e at etree.org
Sat Oct 13 11:28:33 MDT 2007


Band:           Other
Torrent Name:   Eric McFadden Trio 2007-09-27 Uptown Lounge * Oakland, CA
Uploaded by:    cfox
DB Link:        
Details:        http://bt.etree.org/details.php?id=510211

Contact the seeder at http://db.etree.org/cfox

If the link to this show does not work, it was probably removed for
being non-trade-friendly.

Description / text file:
-------------------------
Eric McFadden Trio
Uptown Lounge
Oakland, CA
2007-09-27

source: Schoeps mk41v(dina)~>kc5~>m222~>nt222 + mk21(nos)~>kcy~>vms5u~>744t (24/48)
location: fob/dfc
dsp: 744t~>wavelab5~>cdwave~>wavelab5~>flac(8)
recorded & seeded: charles fox

01 (soundcheck)
02
03
04
05
06
07     
08
09
10
11
12

ffp
mcf2007-09-27d1t01.flac:05a1d14d420048da98cd16d3c84b02b8
mcf2007-09-27d1t02.flac:39bcb23bbdf5ec944c15066917f29e3a
mcf2007-09-27d1t03.flac:b8af0c6669688bf3530c8591f6ac646e
mcf2007-09-27d1t04.flac:613749d1085c1fa8ddc9ed556a397221
mcf2007-09-27d1t05.flac:bb4bd991eaa756dc727a9072de50aa10
mcf2007-09-27d1t06.flac:eb71adc9f4ca7d7a1a90489678bdfe1b
mcf2007-09-27d1t07.flac:1e7a9b3e6e8510ae1613328871441e01
mcf2007-09-27d1t08.flac:1380acece077ee6bb63a2d446186d051
mcf2007-09-27d1t09.flac:ac0229249d39440bd98bce58abb0d20a
mcf2007-09-27d1t10.flac:e65ce95a35a16bf00233877c0a9f63eb
mcf2007-09-27d1t11.flac:10db269c0ba40f2c3ebf29a98680ab76

shntool
    length     expanded size   cdr  WAVE problems filename
     4:30.41       47724476    ---   --   ---xx   mcf2007-09-27d1t01.flac
     5:37.73       59618540    ---   --   ---xx   mcf2007-09-27d1t02.flac
     5:32.22       58616588    ---   --   ---xx   mcf2007-09-27d1t03.flac
     7:17.71       77253836    ---   --   ---xx   mcf2007-09-27d1t04.flac
     6:31.34       69052412    ---   --   ---xx   mcf2007-09-27d1t05.flac
     7:19.36       77524316    ---   --   ---xx   mcf2007-09-27d1t06.flac
    13:00.73      137763740    ---   --   ---xx   mcf2007-09-27d1t07.flac
     8:26.05       89270204    ---   --   ---xx   mcf2007-09-27d1t08.flac
     2:39.12       28075868    ---   --   ---xx   mcf2007-09-27d1t09.flac
     7:18.26       77324396    ---   --   ---xx   mcf2007-09-27d1t10.flac
     3:31.53       37345100    ---   --   ---xx   mcf2007-09-27d1t11.flac
    71:45.71      759569476 B                     (totals for 11 files, 0.5128 overall compression ratio)





More information about the bittorrent mailing list