[bittorrent] Grateful Dead - 1987-04-18 - Irvine Meadows Amphitheatre, Irvine, CA *New Senn 441 source*

Automated Mailer noreply-bt.e at etree.org
Fri Oct 12 12:52:59 MDT 2007


Band:           Grateful Dead
Torrent Name:   Grateful Dead - 1987-04-18 - Irvine Meadows Amphitheatre, Irvine, CA *New Senn 441 source*
Uploaded by:    Albix
DB Link:        http://db.etree.org/shn/87639
Details:        http://bt.etree.org/details.php?id=510192

Contact the seeder at http://db.etree.org/Albix

If the link to this show does not work, it was probably removed for
being non-trade-friendly.

Description / text file:
-------------------------
Grateful Dead
1987-04-18  (Saturday)
Irvine Meadows Amphitheatre
Irvine, CA

Source: MAC; Sennheiser 441s > D5 > D5 > gold plated Monster Cables > D5 > Maxell XLII-S 90 (set I) TDK MA-R90 (set II)

Mic Config: PAS

Location: ROB (right next to Healy)

Taper: John Corso

Transfer: Master Audience Cassettes > Nakamichi Dragon > RCA/XLR > Lunatec V3 (@ 2496) > coax > 
Audiophile 2496 > WaveLab 5.0 > .wav @ 24/96 > iZotope Ozone 3 > Waves L3 UltraMaximizer > 
.wav @ 16/44.1 > CD Wave Editor > Trader's Little Helper > FLAC( 8 )

 

Set I:

d1t01 crowd/tuning
d1t02 Hell In A Bucket >
d1t03 Sugaree
d1t04 Me and My Uncle >
d1t05 Mexicali Blues
d1t06 West L.A. Fadeaway
d1t07 Far From Me
d1t08 Row Jimmy
d1t09 crowd/Tico Tico tuning
d1t10 Let It Grow >
d1t11 Don't Ease Me In

Set II:

d1t12 crowd/tuning
d1t13 Iko Iko
d2t01 Playing In The Band >
d2t02 Terrapin Station >
d2t03 Drums >
d2t04 Space >
d2t05 Gimme Some Lovin' >
d2t06 Morning Dew* >
d2t07 Throwing Stones >
d2t08 Turn On Your Lovelight 
d2t09 crowd > Fence Crashers Rap > crowd/Hard Days Night 
Encore:
d2t10 Black Muddy River



Comment(s):

- * d2t06 Morning Dew was not finished


Notes:

- SBE's fixed with TLH.
- Set I & II tape flips, Fence Crashers Rap > crowd/Hard Days Night and misc. crowd noise patched with shnid=11659.
- 24 bit files archived.
- Master Audience Cassettes provided by Mark McCue.
- Transfer, editing, conversion and seeding by Alex Ford October 2007.




Shntool Output:

    length     expanded size   cdr  WAVE problems filename
     1:14.74       13227692    ---   --   -----   gd1987-04-18-senn441-d1t01.wav
     5:41.20       60199484    ---   --   -----   gd1987-04-18-senn441-d1t02.wav
    10:08.39      107342972    ---   --   -----   gd1987-04-18-senn441-d1t03.wav
     3:02.05       32116604    ---   --   -----   gd1987-04-18-senn441-d1t04.wav
     5:13.14       55246172    ---   --   -----   gd1987-04-18-senn441-d1t05.wav
     7:35.63       80410220    ---   --   -----   gd1987-04-18-senn441-d1t06.wav
     4:39.09       49236812    ---   --   -----   gd1987-04-18-senn441-d1t07.wav
     9:25.20       99713084    ---   --   -----   gd1987-04-18-senn441-d1t08.wav
     1:26.04       15179852    ---   --   -----   gd1987-04-18-senn441-d1t09.wav
    12:16.31      129903356    ---   --   -----   gd1987-04-18-senn441-d1t10.wav
     3:29.56       36999356    ---   --   -----   gd1987-04-18-senn441-d1t11.wav
     0:35.35        6256364    ---   --   -----   gd1987-04-18-senn441-d1t12.wav
     6:15.18       66192380    ---   --   -----   gd1987-04-18-senn441-d1t13.wav
     7:34.42       80184428    ---   --   -----   gd1987-04-18-senn441-d2t01.wav
    11:49.02      125072348    ---   --   -----   gd1987-04-18-senn441-d2t02.wav
    10:05.22      106773788    ---   --   -----   gd1987-04-18-senn441-d2t03.wav
     6:30.49       68911292    ---   --   -----   gd1987-04-18-senn441-d2t04.wav
     4:54.29       51929852    ---   --   -----   gd1987-04-18-senn441-d2t05.wav
     9:41.66      102643676    ---   --   -----   gd1987-04-18-senn441-d2t06.wav
     8:30.52       90086348    ---   --   -----   gd1987-04-18-senn441-d2t07.wav
     6:24.46       67845836    ---   --   -----   gd1987-04-18-senn441-d2t08.wav
     3:40.49       38923292    ---   --   -----   gd1987-04-18-senn441-d2t09.wav
     7:22.46       78077036    ---   --   -----   gd1987-04-18-senn441-d2t10.wav
   147:37.41     1562472244 B                     (totals for 23 files, 1.0000 overall compression ratio)




More information about the bittorrent mailing list