[bittorrent] Donavon Frankenreuter 2006-11-16 Charleston Music Hall * Charleston, SC

Automated Mailer noreply-bt.e at etree.org
Thu Oct 11 14:46:52 MDT 2007


Band:           Other
Torrent Name:   Donavon Frankenreuter 2006-11-16 Charleston Music Hall * Charleston, SC
Uploaded by:    cfox
DB Link:        
Details:        http://bt.etree.org/details.php?id=510176

Contact the seeder at http://db.etree.org/cfox

If the link to this show does not work, it was probably removed for
being non-trade-friendly.

Description / text file:
-------------------------
Donavon Frankenreuter
Charleston Music Hall
Charleston SC
2006-11-16

source: mk41v(dina)~>kc5~>m222~>nt222 + mk2s(nos)~>kcy~>vms5u~>744t (24/48)
location: fob/roc/5th row
transfer: 744t~>wavelab5~>cdwave~>wavelab5~>flac(6)
recorded & seeded: charles fox

1 set-disc 1
01 Intro
02 
03 
04
05
06
07
08
09
10

Opened for Gov't Mule

ffp
df2006-11-6d1t01.flac:2aa960a72f7a303897248665bf88e87c
df2006-11-6d1t02.flac:3ad90ffe8a17aba9da262b85d74b0ca9
df2006-11-6d1t03.flac:aed996ab4ae072474de794d958e189e3
df2006-11-6d1t04.flac:2878c24e4086174bc99e4f33b1d89fe2
df2006-11-6d1t05.flac:6353ba2239aa9f77a4df512d4937deb5
df2006-11-6d1t06.flac:4975fdf3657d3dcd7d0f587795f49d07
df2006-11-6d1t07.flac:a533ec336bd42ad725ae47e2be66c62c
df2006-11-6d1t08.flac:ca07e52eccd9b45ccb602b697881454b
df2006-11-6d1t09.flac:692b233605d826e91daf39704cd20f78
df2006-11-6d1t10.flac:2b952624fa8d13f3489e895f59d122be

shntool
    length     expanded size   cdr  WAVE problems filename
     0:15.55        2775404    ---   --   ---xx   df2006-11-6d1t01.flac
     5:12.54       55163852    ---   --   ---xx   df2006-11-6d1t02.flac
     4:24.21       46619036    ---   --   ---xx   df2006-11-6d1t03.flac
     2:52.56       30472556    ---   --   ---xx   df2006-11-6d1t04.flac
     4:07.10       43594364    ---   --   ---xx   df2006-11-6d1t05.flac
     3:46.72       40035788    ---   --   ---xx   df2006-11-6d1t06.flac
     4:46.24       50506892    ---   --   ---xx   df2006-11-6d1t07.flac
     6:24.64       67888172    ---   --   ---xx   df2006-11-6d1t08.flac
     7:32.67       79890428    ---   --   ---xx   df2006-11-6d1t09.flac
     4:00.37       42423068    ---   --   ---xx   df2006-11-6d1t10.flac
    43:24.10      459369560 B                     (totals for 10 files, 0.4867 overall compression ratio)



More information about the bittorrent mailing list