[bittorrent] gd1980-06-20.sbd.new.miller.25469 West High Auditorium, Anchorage AK

Automated Mailer noreply-bt.e at etree.org
Thu Oct 11 08:36:06 MDT 2007


Band:           Grateful Dead
Torrent Name:   gd1980-06-20.sbd.new.miller.25469 West High Auditorium, Anchorage AK
Uploaded by:    Cranky1
DB Link:        http://db.etree.org/shn/25469
Details:        http://bt.etree.org/details.php?id=510169

Contact the seeder at http://db.etree.org/Cranky1

If the link to this show does not work, it was probably removed for
being non-trade-friendly.

Description / text file:
-------------------------
6/20/80 - Grateful Dead
West High Auditorium 
Anchorage, AK

Recording Info:
SBD -> Cassette Master -> Sonic Solutions (20bit) -> SBM2 (Dithered To 16bit) -> 
CD (Master Production Discs) -> EAC -> SHN  (3 Discs Audio / 2 Discs SHN)

Patch Info:
Patches in Let It Grow and Drums supplied By 
AKG 414 -> Cm -> Dat -> CD -> EAC -> SHN

Cassette Masters supplied by Richard Hale
Transfered By David Gans
Converted To SHN By Charlie Miller
charliemiller87 at earthlink.net
8/6/04

Set 1:
d1t01 - Tuning
d1t02 - Jack Straw ->
d1t03 - Franklin's Tower ->
d1t04 - Mama Tried ->
d1t05 - Mexicali Blues
d1t06 - Friend Of The Devil
d1t07 - Let It Grow ->
d1t08 - Althea
d1t09 - Easy To Love You
d1t10 - Tuning
d2t01 - Lost Sailor ->
d2t02 - Saint Of Circumstance ->
d2t03 - Deal

Set 2:
d2t04 - Alabama Getaway ->
d2t05 - Greatest Story Ever Told
d2t06 - Ship Of Fools
d3t01 - Estimated Prophet ->
d3t02 - The Other One ->
d3t03 - Drums ->
d3t04 - Space ->
d3t05 - Not Fade Away ->
d3t06 - Black Peter ->
d3t07 - Around And Around ->
d3t08 - Johnny B. Goode

Encore:
d3t09 - Don't Ease Me In


SHNTOOL OUTPUT:
    length     expanded size   cdr  WAVE problems filename
     3:01.61       32071916    ---   --   -----   gd80-06-20d1t01.wav
     6:46.20       71665484    ---   --   -----   gd80-06-20d1t02.wav
    11:59.25      126890444    ---   --   -----   gd80-06-20d1t03.wav
     2:41.10       28423964    ---   --   -----   gd80-06-20d1t04.wav
     6:45.13       71472620    ---   --   -----   gd80-06-20d1t05.wav
    10:41.62      113218268    ---   --   -----   gd80-06-20d1t06.wav
    10:01.55      106145804    ---   --   -----   gd80-06-20d1t07.wav
    11:28.55      121492604    ---   --   -----   gd80-06-20d1t08.wav
     4:01.48       42625340    ---   --   -----   gd80-06-20d1t09.wav
     3:12.33       33946460    ---   --   -----   gd80-06-20d1t10.wav
     6:25.45       68019884    ---   --   -----   gd80-06-20d2t01.wav
     5:42.37       60415868    ---   --   -----   gd80-06-20d2t02.wav
     5:20.22       56499788    ---   --   -----   gd80-06-20d2t03.wav
     5:11.49       54975692    ---   --   -----   gd80-06-20d2t04.wav
     6:09.70       65256284    ---   --   -----   gd80-06-20d2t05.wav
    11:30.04      121725452    ---   --   -----   gd80-06-20d2t06.wav
    13:37.33      144196460    ---   --   -----   gd80-06-20d3t01.wav
     5:46.58       61170860    ---   --   -----   gd80-06-20d3t02.wav
     8:23.32       88804508    ---   --   -----   gd80-06-20d3t03.wav
     2:20.08       24714860    ---   --   -----   gd80-06-20d3t04.wav
     7:50.45       83013884    ---   --   -----   gd80-06-20d3t05.wav
     9:52.37      104515868    ---   --   -----   gd80-06-20d3t06.wav
     3:52.63       41073020    ---   --   -----   gd80-06-20d3t07.wav
     4:29.67       47609228    ---   --   -----   gd80-06-20d3t08.wav
     3:26.73       36510140    ---   --   -----   gd80-06-20d3t09.wav
   170:40.50     1806454700 B                     (totals for 25 files)


MD5:
25698fa4694d8fd4bc8b45c5404a9982 *gd80-06-20d1t01.shn
67371d9d5c251d86b9dc2c01e09ede56 *gd80-06-20d1t02.shn
4251ee40b8cacc377e56aa15dbed0d89 *gd80-06-20d1t03.shn
8a783df2e66df7b01b26d450d1dba36c *gd80-06-20d1t04.shn
da6310f26ebfe4d83531cb3565ab65d7 *gd80-06-20d1t05.shn
2b4da44ac714e0f0cc6b7a8e8ccb16d6 *gd80-06-20d1t06.shn
1a6f5d6c30b8251ee20fe7ae57ac9a91 *gd80-06-20d1t07.shn
6cf3565b1374543d65f407716bfb5c73 *gd80-06-20d1t08.shn
077ecd432a4838b9605c7be35c041d94 *gd80-06-20d1t09.shn
e02c259f007968f5b111b0c3e6408c8c *gd80-06-20d1t10.shn
1cca84f9281e532e2b35f802d24f0d92 *gd80-06-20d2t01.shn
4ecf18b1e4f041d495a4103b22d19645 *gd80-06-20d2t02.shn
9e758c262a0eadb0ae0368981d949717 *gd80-06-20d2t03.shn
502892fe8d12ee3132884766265c0c3b *gd80-06-20d2t04.shn
abf4370a9de9c345d7880ba3d4983127 *gd80-06-20d2t05.shn
b0a1f3fd13f5bedad0f34aaeb96a8f0b *gd80-06-20d2t06.shn
559332313940b4b224476415e5800071 *gd80-06-20d3t01.shn
77eaa02944019c92efe12cdaecf35c63 *gd80-06-20d3t02.shn
0d1f9b176f4ab3828afbf629cba8685d *gd80-06-20d3t03.shn
3631f786f756bc53f9bc73ac649824b3 *gd80-06-20d3t04.shn
c4ae3f2de06d520231e27f8d3e450a5f *gd80-06-20d3t05.shn
d3fefbf7a4ca3177a523e5a93aaa8fea *gd80-06-20d3t06.shn
7e9d7fc61106993be561f26deaf10449 *gd80-06-20d3t07.shn
1341c87de5ee57d464c4d343ae533962 *gd80-06-20d3t08.shn
ba3c0e6abe3a0e858be147a82d32e3c3 *gd80-06-20d3t09.shn
c87de5ee57d464c4d343ae533962 *gd80-06-20d3t08.shn
ba3c0e6abe3a0e858be147a82d32e3c3 *gd80-06-20d3t09.shn


    length     expanded size   cdr  WAVE  probs   filename
     3:01.61      32071916     ---   --    -xx    gd80-06-20d1t01.shn
     6:46.20      71665484     ---   --    -xx    gd80-06-20d1t02.shn
    11:59.25     126890444     ---   --    -xx    gd80-06-20d1t03.shn
     2:41.10      28423964     ---   --    -xx    gd80-06-20d1t04.shn
     6:45.13      71472620     ---   --    -xx    gd80-06-20d1t05.shn
    10:41.62     113218268     ---   --    -xx    gd80-06-20d1t06.shn
    10:01.55     106145804     ---   --    -xx    gd80-06-20d1t07.shn
    11:28.55     121492604     ---   --    -xx    gd80-06-20d1t08.shn
     4:01.48      42625340     ---   --    -xx    gd80-06-20d1t09.shn
     3:12.33      33946460     ---   --    -xx    gd80-06-20d1t10.shn
     6:25.45      68019884     ---   --    -xx    gd80-06-20d2t01.shn
     5:42.37      60415868     ---   --    -xx    gd80-06-20d2t02.shn
     5:20.22      56499788     ---   --    -xx    gd80-06-20d2t03.shn
     5:11.49      54975692     ---   --    -xx    gd80-06-20d2t04.shn
     6:09.70      65256284     ---   --    -xx    gd80-06-20d2t05.shn
    11:30.04     121725452     ---   --    -xx    gd80-06-20d2t06.shn
    13:37.33     144196460     ---   --    -xx    gd80-06-20d3t01.shn
     5:46.58      61170860     ---   --    -xx    gd80-06-20d3t02.shn
     8:23.32      88804508     ---   --    -xx    gd80-06-20d3t03.shn
     2:20.08      24714860     ---   --    -xx    gd80-06-20d3t04.shn
     7:50.45      83013884     ---   --    -xx    gd80-06-20d3t05.shn
     9:52.37     104515868     ---   --    -xx    gd80-06-20d3t06.shn
     3:52.63      41073020     ---   --    -xx    gd80-06-20d3t07.shn
     4:29.67      47609228     ---   --    -xx    gd80-06-20d3t08.shn
     3:26.73      36510140     ---   --    -xx    gd80-06-20d3t09.shn
   170:40.50    1806454700 B                      (totals for 25 files, 0.6318 overall compression ratio)




More information about the bittorrent mailing list